BitTorrentTracker PerecTracker.org
BitTorrentTracker PerecTracker.org
    
Регистрация  ·  Вход
 
 · 
Забыли пароль?

  • [ATV3] Он – дракон (Индар Джендубаев) [2015, Россия, Фэнтези, WEB-DL, HD (1080p)] Original

    Ответить на тему
     
    Автор Сообщение

    Flirldrerve

    Создавать темы 01-Янв-2016 02:56

           

    [Цитировать]

    Он – дракон
    «Любить страшно»
    7.012 / 10 6.30 / 10
    -Год выпуска: 2015
    Страна: Россия
    Жанр: Фэнтези
    Продолжительность: 01:46:54
    Перевод: Не требуется
    Оригинальная аудиодорожка: Есть
    Cубтитры: Нет
    Режиссёр: Индар Джендубаев
    Сценарий: Марина Дяченко, Сергей Дяченко, Индар Джендубаев
    Продюсер: Тимур Бекмамбетов, Наталья Смирнова, Игорь Цай
    Оператор: Сергей Трофимов
    Композитор: Саймон Финли
    Художник: Григорий Пушкин, Сергей Февралев, Марина Ананьева
    В ролях: Мария Поезжаева, Матвей Лыков, Станислав Любшин, Иева Андреевайте, Петр Романов, Андрей Лебединский, Марта Тимофеева, Иво Господинов, Егор Зубарчук, Виктория Рунцова
    Бюджет: $1 776 333
    Премьера (РФ): 3 декабря 2015, «Bazelevs Distribution»
    Описание: В разгар свадьбы княжну Мирославу похищает дракон, унося в свой замок на острове. В прошлом остались родные, жених, теперь только каменный плен в компании прекрасного Армана… но кто он и как оказался на острове? Мира поймет это слишком поздно: любовь к нему, человеку-дракону, откроет ей горькую истину — любить страшно.-Качество исходника: WEB-DL 1080p (BlueBird)
    Качество: WEB-DL
    Тип: HD (1080p)
    Контейнер: M4V
    Видео: H.264, 1916x804, 2.40:1, 4 425 Kbps, 24.000 fps
    Аудио 1: Русский/Оригинальная дорожка , AAC / 2.0 / 158 Kbps / 48.0 KHz
    Аудио 2: Русский/Оригинальная дорожка , AC-3 / 5.1 / 384 Kbps / 48.0 KHz
    -

    iTunes Meta Tags

    Sort Name: Он – дракон
    XID: Apple:vendor_id:2015-840258
    contentID: 1064658336
    Copyright: © 2015 Bazelevs Distribution
    Screenwriters: Марина Дяченко, Сергей Дяченко, Индар Джендубаев
    Producers: Тимур Бекмамбетов, Наталья Смирнова, Игорь Цай
    Director: Индар Джендубаев
    Cast: Мария Поезжаева, Матвей Лыков, Станислав Любшин, Иева Андреевайте, Петр Романов, Андрей Лебединский, Марта Тимофеева, Иво Господинов, Егор Зубарчук, Виктория Рунцова
    Studio: Базелевс Продакшн
    Rating: 134
    Long Description: В разгар свадьбы княжну Мирославу похищает дракон, унося в свой замок на острове. В прошлом остались родные, жених, теперь только каменный плен в компании прекрасного Армана... но кто он и как оказался на острове? Мира поймет это слишком поздно: любовь к нему, человеку-дракону, откроет ей горькую истину - любить страшно.
    Description: В разгар свадьбы княжну Мирославу похищает дракон, унося в свой замок на острове. В прошлом остались родные, жених, теперь только каменный плен в компании прекрасного Армана... но кто он и как оказался на острове? Мира поймет это слишком поздно: любовь к нему, человеку-дракону, откроет ей горькую истину - любить страшно.
    Release Date: 2015-01-01T08:00:00Z
    Genre: Русское кино
    Artist: Индар Джендубаев
    Name: Он – дракон

    MediaInfo

    General
    Complete name : /Users/imac/HandBrake/On-Drakon.WEB-DL.1080p.m4v
    Format : MPEG-4
    Codec ID : M4V  (M4V /M4A /mp42/isom)
    File size : 3.71 GiB
    Duration : 1h 46mn
    Overall bit rate mode : Variable
    Overall bit rate : 4 974 Kbps
    Movie name : Он – дракон
    Performer : Индар Джендубаев
    Director : Индар Джендубаев
    Actor : Мария Поезжаева / Матвей Лыков / Станислав Любшин / Иева Андреевайте / Петр Романов / Андрей Лебединский / Марта Тимофеева / Иво Господинов / Егор Зубарчук / Виктория Рунцова
    Screenplay by : Марина Дяченко / Сергей Дяченко / Индар Джендубаев
    Producer : Тимур Бекмамбетов / Наталья Смирнова / Игорь Цай
    Production studio : Базелевс Продакшн
    Genre : Русское кино
    ContentType : Short Film
    Description : В разгар свадьбы княжну Мирославу похищает дракон, унося в свой замок на острове. В прошлом остались родные, жених, теперь только каменный плен в компании прекрасного Армана... но кто он и как оказался на острове? Мира поймет это слишком поздно: любовь к нему, человеку-дракону, откроет ей горькую истину - любить страшно.
    Recorded date : UTC 2015-01-01 08:00:00
    Encoded date : UTC 2015-12-31 17:09:49
    Tagged date : UTC 2015-12-31 17:12:37
    Copyright : © 2015 Bazelevs Distribution
    Cover : Yes
    Rating : None
    Title/Sort : Он – дракон
    LongDescription : В разгар свадьбы княжну Мирославу похищает дракон, унося в свой замок на острове. В прошлом остались родные, жених, теперь только каменный плен в компании прекрасного Армана... но кто он и как оказался на острове? Мира поймет это слишком поздно: любовь к нему, человеку-дракону, откроет ей горькую истину - любить страшно.
    AppleStoreCatalogID : 1064658336
    Vendor : Apple:vendor_id:2015-840258
    ContentRating : ru-movie|12+|200|
    Video #1
    ID : 1
    Format : AVC
    Format/Info : Advanced Video Codec
    Format profile : High@L4
    Format settings, CABAC : Yes
    Format settings, ReFrames : 5 frames
    Codec ID : avc1
    Codec ID/Info : Advanced Video Coding
    Duration : 1h 46mn
    Source duration : 1h 46mn
    Bit rate : 4 425 Kbps
    Width : 1 916 pixels
    Height : 804 pixels
    Display aspect ratio : 2.40:1
    Frame rate mode : Variable
    Frame rate : 24.000 fps
    Minimum frame rate : 23.810 fps
    Maximum frame rate : 24.390 fps
    Color space : YUV
    Chroma subsampling : 4:2:0
    Bit depth : 8 bits
    Scan type : Progressive
    Bits/(Pixel*Frame) : 0.120
    Stream size : 3.30 GiB (89%)
    Source stream size : 3.30 GiB (89%)
    Title : Main Program
    Language : Russian
    Encoded date : UTC 2015-12-31 17:09:49
    Tagged date : UTC 2015-12-31 17:09:55
    Color range : Limited
    Color primaries : BT.709
    Transfer characteristics : BT.709
    Matrix coefficients : BT.709
    Menus : 4,5
    Video #2
    ID : 5
    Format : JPEG
    Codec ID : jpeg
    Duration : 1h 46mn
    Bit rate mode : Variable
    Bit rate : 721 bps
    Width : 640 pixels
    Height : 268 pixels
    Display aspect ratio : 2.40:1
    Frame rate mode : Variable
    Frame rate : 0.003 fps
    Minimum frame rate : 0.002 fps
    Maximum frame rate : 0.003 fps
    Color space : YUV
    Chroma subsampling : 4:2:0
    Bit depth : 8 bits
    Compression mode : Lossy
    Bits/(Pixel*Frame) : 1.401
    Stream size : 528 KiB (0%)
    Title : Chapter Images
    Language : Russian
    Default : No
    Encoded date : UTC 2015-12-31 17:10:02
    Tagged date : UTC 2015-12-31 17:10:03
    Menu For : 1
    Audio #1
    ID : 2
    Format : AAC
    Format/Info : Advanced Audio Codec
    Format profile : LC
    Codec ID : 40
    Duration : 1h 46mn
    Bit rate mode : Variable
    Bit rate : 158 Kbps
    Maximum bit rate : 231 Kbps
    Channel(s) : 2 channels
    Channel positions : Front: L R
    Sampling rate : 48.0 KHz
    Frame rate : 46.875 fps (1024 spf)
    Compression mode : Lossy
    Stream size : 121 MiB (3%)
    Title : Russian Stereo
    Language : Russian
    Default : Yes
    Alternate group : 1
    Encoded date : UTC 2015-12-31 17:09:49
    Tagged date : UTC 2015-12-31 17:09:57
    Fallback From : 3
    Audio #2
    ID : 3
    Format : AC-3
    Format/Info : Audio Coding 3
    Mode extension : CM (complete main)
    Format settings, Endianness : Big
    Codec ID : ac-3
    Duration : 1h 46mn
    Bit rate mode : Constant
    Bit rate : 384 Kbps
    Channel(s) : 6 channels
    Channel positions : Front: L C R, Side: L R, LFE
    Sampling rate : 48.0 KHz
    Frame rate : 31.250 fps (1536 spf)
    Bit depth : 16 bits
    Compression mode : Lossy
    Stream size : 294 MiB (8%)
    Title : Russian DD 5.1
    Language : Russian
    Default : Inherited From: 2
    Alternate group : 1
    Encoded date : UTC 2015-12-31 17:09:49
    Tagged date : UTC 2015-12-31 17:09:56
    Fallback To : 2
    Menu #1
    00:00:00.000 : Глава 1
    00:05:26.000 : Глава 2
    00:11:15.000 : Глава 3
    00:16:58.000 : Глава 4
    00:24:09.000 : Глава 5
    00:29:45.000 : Глава 6
    00:34:48.000 : Глава 7
    00:41:26.000 : Глава 8
    00:46:47.000 : Глава 9
    00:53:25.000 : Глава 10
    00:58:43.000 : Глава 11
    01:03:46.000 : Глава 12
    01:09:21.000 : Глава 13
    01:15:07.000 : Глава 14
    01:20:21.000 : Глава 15
    01:27:49.000 : Глава 16
    01:34:16.000 : Глава 17
    01:39:57.000 : Глава 18
    Menu #2
    ID : 4
    Codec ID : text
    Duration : 1h 46mn
    Language : Russian
    Encoded date : UTC 2015-12-31 17:09:58
    Tagged date : UTC 2015-12-31 17:09:58
    Menu For : 1
    00:00:00.000 : Глава 1
    00:05:26.000 : Глава 2
    00:11:15.000 : Глава 3
    00:16:58.000 : Глава 4
    00:24:09.000 : Глава 5
    00:29:45.000 : Глава 6
    00:34:48.000 : Глава 7
    00:41:26.000 : Глава 8
    00:46:47.000 : Глава 9
    00:53:25.000 : Глава 10
    00:58:43.000 : Глава 11
    01:03:46.000 : Глава 12
    01:09:21.000 : Глава 13
    01:15:07.000 : Глава 14
    01:20:21.000 : Глава 15
    01:27:49.000 : Глава 16
    01:34:16.000 : Глава 17
    01:39:57.000 : Глава 18
    Bit rate mode : VBR

    Скриншоты

    -

    Релиз подготовлен для просмотра на Apple TV, iPad, iPhone, iPod Touch.
    Для просмотра данного релиза на компьютере с ОС Windows рекомендуется использовать VLC media player
    Скачать .torrent

    Скачать торрент-файл бесплатно и на максимальной скорости!

    Как скачивать? · Что такое торрент? · Рейтинг и ограничения

    !ВНИМАНИЕ!
    Сайт не распространяет и не хранит электронные версии произведений, а занимается лишь лишь предоставлением доступа к создаваемому пользователями каталогу ссылок на торрент-файлы, которые содержат только списки хеш-сумм, убедительная просьба с жалобами обращаться напрямую к пользователю. Файлы для обмена на трекере предоставлены пользователями сайта, и администрация не несёт ответственности за их содержание. Просьба не заливать файлы, защищенные авторскими правами, а также файлы нелегального содержания!


    _________________
    [Профиль] [ЛС]
    Показать сообщения:    
    Ответить на тему

    Текущее время: Сегодня, в 04:23

    Часовой пояс: GMT + 2



    Вы не можете начинать темы
    Вы не можете отвечать на сообщения
    Вы не можете редактировать свои сообщения
    Вы не можете удалять свои сообщения
    Вы не можете голосовать в опросах
    Вы не можете прикреплять файлы к сообщениям
    Вы не можете скачивать файлы