BitTorrentTracker PerecTracker.org
BitTorrentTracker PerecTracker.org
    
Регистрация  ·  Вход
 
 · 
Забыли пароль?

  • Большая Дискотека 80-х (13) 2014 год (разбит по трекам) HD 1080i [2014, Disco, HDTV 1080i]

    Ответить на тему
     
    Автор Сообщение

    rechyn

    Создавать темы 31-Дек-2015 23:26

           

    [Цитировать]

    Большая Дискотека 80-х (13) 2014 год (разбит по трекам) HD 1080iЖанр: Disco
    Продолжительность: 02:31:23
    Год выпуска: 2014
    Описание: "XIII международный музыкальный фестиваль «Авторадио» - «Дискотека 80-х» - стал самым масштабным за всю историю. Тридцать легендарных исполнителей, музыка non-stop, слаженная работа звука и света, совершенно необычный видеоконтент - все это «Большая Дискотека 80-х»! Всеми любимые и неподвластные времени хиты исполнили Thomas Anders,C.C. Catch, Eruption, Silent Circle, Opus, Lian Ross, Riccardo Fogli, Pupo, Ottawan, Ricchi e Poveri, Village People, Александр Кутиков и группа «Нюанс», Владимир Пресняков, Андрей Державин, Олег Газманов, Дмитрий Маликов, Валерий Сюткин, Игорь Николаев, Сергей Минаев, Владимир Маркин, Рома Жуков, Сергей Беликов, Виктор Салтыков, Игорь Корнелюк, Юрий Лоза, Игорь Саруханов, Александр Иванов и группа «Рондо», «Кар-Мэн», ВИА «Здравствуй, песня», «Веселые ребята», «Земляне». Более 30 тысяч зрителей собрались в этом году в «Олимпийском», чтобы насладиться грандиозным фантастическим шоу, оценить невероятную сценографию, красочные костюмы участников, эффектные постановки и, конечно же, потанцевать под зажигательные ритмы 80-х.
    Качество: HDTV 1080i
    Контейнер: MKV
    Видео кодек: H.264
    Аудио кодек: MP2
    Видео: H.264, 1920x1080, 16:9, 10,8 Мбит/сек, 25 fps
    Аудио: MP2, 48000Hz, 192 kbps, 2 ch

    Треклист

    01. Заставка
    02. Eruption - One way ticket
    03. Tomas Anders - Brother Louie
    04. Игорь Николаев - Такси, такси
    05. Village people - Y.M.C.A
    06. Рома Жуков - Я люблю вас девочки, Я люблю вас мальчики
    07. Ottawan - Hands Up
    08. Виктор Салтыков - Белая ночь
    09. Ricchi E Poveri - Mamma Maria
    10. Ricchi E Poveri - Cosa Sei
    11. Валерий Сюткин - Черный кот
    12. Владимир Пресняков - Недотрога
    13. C.C. Catch - Heaven and hell
    14. Олег Газманов - Свежий ветер
    15. Silent Circle - Touch in the night
    16. Silent Circle - Stop the rain in the night
    17. Игорь Саруханов - Позади крутой поворот
    18. Владимир Маркин - Сиреневый туман
    19. Tomas Anders - Cherry Cherry Lady
    20. Юрий Лоза - Плот
    21. Земляне - Трава у дома
    22. Lian Ross - Say You'll Never
    23. Андрей Державин - Не плачь, Алиса
    24. Александр Иванов и гр.Рондо - Я буду помнить
    25. Opus - Life is Life
    26. Дмитрий Маликов - Брачный кортеж
    27. Игорь Корнелюк - Мало ли
    28. Riccardo Fogli - Storie Di Tutti I Giorni
    29. Riccardo Fogli - Malinconia
    30. Сергей Белиов - Радуга
    31. Village people - Go west
    32. Здравствуй, песня - Просто уходило лето
    33. Сергей Минаев - Карнавал
    34. Pupo - Gelato Al Cioccolato
    35. Выступление А.Варина
    36. Александр Кутиков и гр.Нюанс - Поворот
    37. Кар-Мэн - Лондон, гудбай
    38. C.C. Catch - Megamix
    39. Tomas Anders - You're My Heart

    MediaInfo

    Общее
    Уникальный идентификатор : 245547706530294505691838840556758760214 (0xB8BAC4A0C660153D942ED2FD7357FB16)
    Полное имя : C:\Documents and Settings\User\Мои документы\Мои видеозаписи\Большая Дискотека 80-х 2014 год. (HDTV1080i по треково). Заставка.mkv
    Формат : Matroska
    Версия формата : Version 4 / Version 2
    Размер файла : 11,3 Мбайт
    Продолжительность : 8 с. 496 мс.
    Общий поток : 11,2 Мбит/сек
    Дата кодирования : UTC 2015-01-27 16:42:27
    Программа кодирования : mkvmerge v6.3.0 ('You can't stop me!') built on Jun 28 2013 20:09:41
    Библиотека кодирования : libebml v1.3.0 + libmatroska v1.4.0
    Видео
    Идентификатор : 1
    Формат : AVC
    Формат/Информация : Advanced Video Codec
    Профиль формата : High@L4.0
    Параметр CABAC формата : Да
    Параметр ReFrames формата : 3 кадра
    Идентификатор кодека : V_MPEG4/ISO/AVC
    Продолжительность : 8 с. 480 мс.
    Битрейт : 10,8 Мбит/сек
    Ширина : 1920 пикселей
    Высота : 1080 пикселей
    Соотношение сторон : 16:9
    Режим частоты кадров : Постоянный
    Частота кадров : 25,000 кадров/сек
    Стандарт вещания : Component
    Цветовое пространство : YUV
    Субдискретизация насыщенности : 4:2:0
    Битовая глубина : 8 бит
    Тип развёртки : Чересстрочная
    Порядок развёртки : Верхнее поле первое
    Бит/(Пиксели*Кадры) : 0.208
    Размер потока : 10,9 Мбайт (96%)
    Default : Да
    Forced : Нет
    Основные цвета : BT.709
    Характеристики трансфера : BT.709
    Коэффициенты матрицы : BT.709
    colour_range : Limited
    Аудио
    Идентификатор : 2
    Формат : MPEG Audio
    Версия формата : Version 1
    Профиль формата : Layer 2
    Идентификатор кодека : A_MPEG/L2
    Идентификатор кодека/Подсказка : MP2
    Продолжительность : 8 с. 496 мс.
    Вид битрейта : Постоянный
    Битрейт : 192 Кбит/сек
    Каналы : 2 канала
    Частота : 48,0 КГц
    Метод сжатия : С потерями
    Размер потока : 199 Кбайт (2%)
    Язык : Russian
    Default : Да
    Forced : Нет

    Скриншоты

    Скачать .torrent

    Скачать торрент-файл бесплатно и на максимальной скорости!

    Как скачивать? · Что такое торрент? · Рейтинг и ограничения

    !ВНИМАНИЕ!
    Сайт не распространяет и не хранит электронные версии произведений, а занимается лишь лишь предоставлением доступа к создаваемому пользователями каталогу ссылок на торрент-файлы, которые содержат только списки хеш-сумм, убедительная просьба с жалобами обращаться напрямую к пользователю. Файлы для обмена на трекере предоставлены пользователями сайта, и администрация не несёт ответственности за их содержание. Просьба не заливать файлы, защищенные авторскими правами, а также файлы нелегального содержания!


    _________________
    [Профиль] [ЛС]
    Показать сообщения:    
    Ответить на тему

    Текущее время: Сегодня, в 01:08

    Часовой пояс: GMT + 2



    Вы не можете начинать темы
    Вы не можете отвечать на сообщения
    Вы не можете редактировать свои сообщения
    Вы не можете удалять свои сообщения
    Вы не можете голосовать в опросах
    Вы не можете прикреплять файлы к сообщениям
    Вы не можете скачивать файлы