Register  ·  Log in
Forgot password?

  • Три богатыря (Александр Игудин) [2013, новогодняя сказка, мюзикл, комедия, SATRip]

    Reply to topic
    Author Message


    Post 31-Dec-2015 23:44



    Три богатыря
    Жанр: Новогодняя сказка, мюзикл, комедия
    Год выпуска: 2013
    Продолжительность: 01:31:28
    Режиссёр: Александр Игудин
    В ролях: Анна Семенович, Ефим Шифрин, Алексей Воробьев, Анастасия Стоцкая, Андрей Данилко, Юрий Гальцев, Юрий Стоянов, Михаил Боярский, Юрий Аскаров, Кристина Орбакайте, Филипп Киркоров
    Описание: По традиции в канун Нового года на телеканале "Россия" - старая сказка на новый лад! Авторы новой музыкальной комедии сознательно изменили сюжетную линию всем знакомой сказки, добавили новые непредсказуемые повороты и ввели неожиданных героев. В сказочных персонажей перевоплотились многие поп-звезды...
    Доп. информация:
    Формат видео: AVI
    Качество видео: SATRip (DVB)
    Видео: XviD, 656х368, 25fps, 1000kbps
    Аудио: MPEG Layer 3, 2ch, 48000Hz, 128kbps


    Complete name : Tri.Bogatyra.2013.O.SATRip.700.CurHaJI.avi
    Format : AVI
    Format/Info : Audio Video Interleave
    File size : 744 MiB
    Duration : 1h 31mn
    Overall bit rate : 1 138 Kbps
    Movie name : Tri.Bogatyra.2013.O.SATRip.700.CurHaJI
    Writing application : Lavf53.13.0
    Writing library : VirtualDub build 35491/release
    ID : 0
    Format : MPEG-4 Visual
    Format profile : Advanced Simple@L5
    Format settings, BVOP : 2
    Format settings, QPel : No
    Format settings, GMC : No warppoints
    Format settings, Matrix : Custom
    Codec ID : XVID
    Codec ID/Hint : XviD
    Duration : 1h 31mn
    Bit rate : 1 000 Kbps
    Width : 656 pixels
    Height : 368 pixels
    Display aspect ratio : 16:9
    Frame rate : 25.000 fps
    Color space : YUV
    Chroma subsampling : 4:2:0
    Bit depth : 8 bits
    Scan type : Progressive
    Compression mode : Lossy
    Bits/(Pixel*Frame) : 0.166
    Stream size : 654 MiB (88%)
    Writing library : XviD 64
    ID : 1
    Format : MPEG Audio
    Format version : Version 1
    Format profile : Layer 3
    Codec ID : 55
    Codec ID/Hint : MP3
    Duration : 1h 31mn
    Bit rate mode : Constant
    Bit rate : 128 Kbps
    Channel(s) : 2 channels
    Sampling rate : 48.0 KHz
    Compression mode : Lossy
    Stream size : 83.7 MiB (11%)
    Alignment : Split accross interleaves
    Interleave, duration : 40 ms (1.00 video frame)
    Interleave, preload duration : 500 ms
    Writing library : L3.99r
    Encoding settings : -m s -V 4 -q 2 -lowpass 17 -b 128


    Download .torrent

    Download free and at maximum speed!

    How to Download? · What is a torrent? · Ratings and Limitations

    The site does not extend and does not store electronic(digital) versions of products, and only gives access to a reference catalogue created by users on torrent-files which contain only lists of the hash-sums, the earnest entreaty, with complaints(abuse) to access directly to the user. Files for an exchange on tracker are given by users of a site, and the administration does not bear the responsibility for their maintenance. The request to not fill in the files protected by copyrights, and also files of the illegal maintenance!

    [Profile] [PM]


    Post 01-Jan-2016 14:12 (after 14 hours)


    Топик был перенесен из форума Наше кино в форум Новогодние релизы - Фильмы, Мультфильмы


    Как бы ты высоко не летал, не забывай, с кем ты ползал..
    Display posts from previous:    
    Reply to topic

    The time now is: Today 10:03

    All times are GMT + 3 Hours

    You cannot post new topics in this forum
    You cannot reply to topics in this forum
    You cannot edit your posts in this forum
    You cannot delete your posts in this forum
    You cannot vote in polls in this forum
    You cannot attach files in this forum
    You cannot download files in this forum