BitTorrentTracker PerecTracker.org
BitTorrentTracker PerecTracker.org
    
Регистрация  ·  Вход
 
 · 
Забыли пароль?

  • Три богатыря (Александр Игудин) [2013, новогодняя сказка, мюзикл, комедия, SATRip]

    Ответить на тему
     
    Автор Сообщение

    rechyn

    Создавать темы 31-Дек-2015 22:44

           

    [Цитировать]

    Три богатыря
    Жанр: Новогодняя сказка, мюзикл, комедия
    Год выпуска: 2013
    Продолжительность: 01:31:28
    Режиссёр: Александр Игудин
    В ролях: Анна Семенович, Ефим Шифрин, Алексей Воробьев, Анастасия Стоцкая, Андрей Данилко, Юрий Гальцев, Юрий Стоянов, Михаил Боярский, Юрий Аскаров, Кристина Орбакайте, Филипп Киркоров
    Описание: По традиции в канун Нового года на телеканале "Россия" - старая сказка на новый лад! Авторы новой музыкальной комедии сознательно изменили сюжетную линию всем знакомой сказки, добавили новые непредсказуемые повороты и ввели неожиданных героев. В сказочных персонажей перевоплотились многие поп-звезды...
    Доп. информация:
    Сэмпл: http://multi-up.com/1066156
    Исходник: http://perectracker.org/viewtopic.php?t=4640274
    Формат видео: AVI
    Качество видео: SATRip (DVB)
    Видео: XviD, 656х368, 25fps, 1000kbps
    Аудио: MPEG Layer 3, 2ch, 48000Hz, 128kbps

    MediaInfo

    General
    Complete name : Tri.Bogatyra.2013.O.SATRip.700.CurHaJI.avi
    Format : AVI
    Format/Info : Audio Video Interleave
    File size : 744 MiB
    Duration : 1h 31mn
    Overall bit rate : 1 138 Kbps
    Movie name : Tri.Bogatyra.2013.O.SATRip.700.CurHaJI
    Writing application : Lavf53.13.0
    Writing library : VirtualDub build 35491/release
    Video
    ID : 0
    Format : MPEG-4 Visual
    Format profile : Advanced Simple@L5
    Format settings, BVOP : 2
    Format settings, QPel : No
    Format settings, GMC : No warppoints
    Format settings, Matrix : Custom
    Codec ID : XVID
    Codec ID/Hint : XviD
    Duration : 1h 31mn
    Bit rate : 1 000 Kbps
    Width : 656 pixels
    Height : 368 pixels
    Display aspect ratio : 16:9
    Frame rate : 25.000 fps
    Color space : YUV
    Chroma subsampling : 4:2:0
    Bit depth : 8 bits
    Scan type : Progressive
    Compression mode : Lossy
    Bits/(Pixel*Frame) : 0.166
    Stream size : 654 MiB (88%)
    Writing library : XviD 64
    Audio
    ID : 1
    Format : MPEG Audio
    Format version : Version 1
    Format profile : Layer 3
    Codec ID : 55
    Codec ID/Hint : MP3
    Duration : 1h 31mn
    Bit rate mode : Constant
    Bit rate : 128 Kbps
    Channel(s) : 2 channels
    Sampling rate : 48.0 KHz
    Compression mode : Lossy
    Stream size : 83.7 MiB (11%)
    Alignment : Split accross interleaves
    Interleave, duration : 40 ms (1.00 video frame)
    Interleave, preload duration : 500 ms
    Writing library : L3.99r
    Encoding settings : -m s -V 4 -q 2 -lowpass 17 -b 128
    Скриншоты

    Скриншоты

    Скачать .torrent

    Скачать торрент-файл бесплатно и на максимальной скорости!

    Как скачивать? · Что такое торрент? · Рейтинг и ограничения

    !ВНИМАНИЕ!
    Сайт не распространяет и не хранит электронные версии произведений, а занимается лишь лишь предоставлением доступа к создаваемому пользователями каталогу ссылок на торрент-файлы, которые содержат только списки хеш-сумм, убедительная просьба с жалобами обращаться напрямую к пользователю. Файлы для обмена на трекере предоставлены пользователями сайта, и администрация не несёт ответственности за их содержание. Просьба не заливать файлы, защищенные авторскими правами, а также файлы нелегального содержания!


    _________________
    [Профиль] [ЛС]

    -746

    Создавать темы 01-Янв-2016 13:12 (спустя 14 часов)

           

    Топик был перенесен из форума Наше кино в форум Новогодние релизы - Фильмы, Мультфильмы


    -sasha2006

    _________________
    Как бы ты высоко не летал, не забывай, с кем ты ползал..
     
    Показать сообщения:    
    Ответить на тему

    Текущее время: Сегодня, в 18:54

    Часовой пояс: GMT + 2



    Вы не можете начинать темы
    Вы не можете отвечать на сообщения
    Вы не можете редактировать свои сообщения
    Вы не можете удалять свои сообщения
    Вы не можете голосовать в опросах
    Вы не можете прикреплять файлы к сообщениям
    Вы не можете скачивать файлы