BitTorrentTracker PerecTracker.org
BitTorrentTracker PerecTracker.org
    
Регистрация  ·  Вход
 
 · 
Забыли пароль?

  • Дюймовочка / Thumbelina (Масаказу Хигучи / Masakazu Higuchi, Диана Эшкенази / Diane Eskenazi) [1992, США, Япония, мультфильм, семейный, сказка, DVDRip] Dub + MVO

    Ответить на тему
     
    Автор Сообщение

    rechyn

    Создавать темы 31-Дек-2015 22:44

           

    [Цитировать]

    Дюймовочка / Thumbelina
    Страна: США, Япония
    Жанр: мультфильм, семейный, сказка
    Продолжительность: 00:48:00
    Год выпуска: 1992
    Перевод: Профессиональный (дублированный)
    Перевод: Профессиональный (многоголосый закадровый)
    Русские субтитры: нет

    Режиссёр: Масаказу Хигучи / Masakazu Higuchi, Диана Эшкенази / Diane Eskenazi
    Описание: Добрая и красивая история о приключениях крошечной девочки, снятая по мотивам одной из самых любимых сказок Ганса Христиана Андерсена.
    Маленькая Дюймовочка живет в волшебном лесу со своим папой на берегу реки. Однажды отец-гномик замечает, что в лесу происходят неблагоприятные природные изменения и просит дочку отправиться за помощью к принцу на волшебный луг. По пути девочку похищает ведьма, сажает в цветок, и продает ее бедной женщине, которая не может иметь детей. А дальше Дюймовочке предстоит пережить немало опасностей. Она попадает в "лапы" то к жабам, то к жукам, то к хитрой лисице. И Все хотят ее съесть или сразу жениться! Однако в итоге малышка найдет много друзей и свою любовь!

    Качество: DVDRip
    Формат: AVI
    Видео: 624x480 (1.30:1), 25 fps, XviD build 73 ~1770 kbps avg, 0.24 bit/pixel
    Аудио: 48 kHz, AC3 Dolby Digital, 2/0 (L,R) ch, ~192 kbps - дубляж
    Аудио: 48 kHz, AC3 Dolby Digital, 2/0 (L,R) ch, ~192 kbps - многоголосый
    Субтитры: отсутствуют

    Подробные технические данные

    ОбщееПолное имя : H:\Thumbelina.1992.dvdrip_[745]_[teko].aviФормат : AVIФормат/Информация : Audio Video InterleaveРазмер файла : 745 МбайтПродолжительность : 48 м.Общий поток : 2169 Кбит/секПрограмма кодирования : VirtualDubMod 1.5.10.3 | www.virtualdub-fr.org || (build 2550/release)Библиотека кодирования : VirtualDubMod build 2550/release
    ВидеоИдентификатор : 0Формат : MPEG-4 VisualПрофиль формата : Advanced Simple@L5Параметр BVOP формата : 2Параметр QPel формата : НетПараметр GMC формата : Без точки переходаПараметр матрицы формата : ВыборочнаяИдентификатор кодека : XVIDИдентификатор кодека/Подсказка : XviDПродолжительность : 48 м.Битрейт : 1771 Кбит/секШирина : 624 пикселяВысота : 480 пикселейСоотношение сторон : 4:3Частота кадров : 25,000 кадров/секЦветовое пространство : YUVСубдискретизация насыщенности : 4:2:0Битовая глубина : 8 битТип развёртки : ПрогрессивнаяМетод сжатия : С потерямиБит/(Пиксели*Кадры) : 0.237Размер потока : 608 Мбайт (82%)Библиотека кодирования : XviD 73
    Аудио #1Идентификатор : 1Формат : AC-3Формат/Информация : Audio Coding 3Расширение режима : CM (complete main)Параметр Endianness формата : BigИдентификатор кодека : 2000Продолжительность : 48 м.Вид битрейта : ПостоянныйБитрейт : 192 Кбит/секКаналы : 2 каналаРасположение каналов : Front: L RЧастота : 48,0 КГцБитовая глубина : 16 битМетод сжатия : С потерямиРазмер потока : 65,9 Мбайт (9%)Выравнивание : Разделение по промежуткамПродолжительность промежутка : 40 мс. (1,00 видеокадр)Время предзагрузки промежутка : 500 мс.
    Аудио #2Идентификатор : 2Формат : AC-3Формат/Информация : Audio Coding 3Расширение режима : CM (complete main)Параметр Endianness формата : BigИдентификатор кодека : 2000Продолжительность : 48 м.Вид битрейта : ПостоянныйБитрейт : 192 Кбит/секКаналы : 2 каналаРасположение каналов : Front: L RЧастота : 48,0 КГцБитовая глубина : 16 битМетод сжатия : С потерямиРазмер потока : 65,9 Мбайт (9%)Выравнивание : Разделение по промежуткамПродолжительность промежутка : 40 мс. (1,00 видеокадр)Время предзагрузки промежутка : 500 мс.

    Скриншоты

    Релиз группы:

    -
    -
    Скачать .torrent

    Скачать торрент-файл бесплатно и на максимальной скорости!

    Как скачивать? · Что такое торрент? · Рейтинг и ограничения

    !ВНИМАНИЕ!
    Сайт не распространяет и не хранит электронные версии произведений, а занимается лишь лишь предоставлением доступа к создаваемому пользователями каталогу ссылок на торрент-файлы, которые содержат только списки хеш-сумм, убедительная просьба с жалобами обращаться напрямую к пользователю. Файлы для обмена на трекере предоставлены пользователями сайта, и администрация не несёт ответственности за их содержание. Просьба не заливать файлы, защищенные авторскими правами, а также файлы нелегального содержания!


    _________________
    [Профиль] [ЛС]
    Показать сообщения:    
    Ответить на тему

    Текущее время: Сегодня, в 06:04

    Часовой пояс: GMT + 2



    Вы не можете начинать темы
    Вы не можете отвечать на сообщения
    Вы не можете редактировать свои сообщения
    Вы не можете удалять свои сообщения
    Вы не можете голосовать в опросах
    Вы не можете прикреплять файлы к сообщениям
    Вы не можете скачивать файлы