Register  ·  Log in
Forgot password?

  • Красная шапочка / Little Red Riding Hood (Toshiyuki Hiruma / Тошиюки Хирума) [1995, США, Япония, мультфильм, сказка, DVDRip] Dub

    Reply to topic
    Author Message


    Post 31-Dec-2015 23:44



    Красная шапочка / Little Red Riding Hood
    Страна: США, Япония
    Жанр: мультфильм, сказка
    Продолжительность: 00:48:07
    Год выпуска: 1995
    Перевод: Профессиональный (дублированный) - Варус Видео
    Русские субтитры: нет

    Режиссёр: Toshiyuki Hiruma / Тошиюки Хирума
    Описание: Как-то раз маленькая девочка по имени Красная Шапочка отправилась навестить свою бабушку. Дорога к бабушкиному дому пролегала через дремучий лес, в котором жил злой и голодный волк.
    Качество: DVDRip
    Формат: AVI
    Видео: 624x480 (1.30:1), 25 fps, XviD build 73 ~2050 kbps avg, 0.27 bit/pixel
    Аудио: 48 kHz, AC3 Dolby Digital, 1/0 (C) ch, ~96 kbps
    Субтитры: отсутствуют

    Подробные технические данные

    Общий поток : 2156 Кбит/секПрограмма кодирования : VirtualDubMod | || (build 2550/release)Библиотека кодирования : VirtualDubMod build 2550/release
    ВидеоИдентификатор : 0Формат : MPEG-4 VisualПрофиль формата : Advanced Simple@L5Параметр BVOP формата : 2Параметр QPel формата : НетПараметр GMC формата : Без точки переходаПараметр матрицы формата : ВыборочнаяИдентификатор кодека : XVIDИдентификатор кодека/Подсказка : XviDПродолжительность : 48 м.Битрейт : 2050 Кбит/секШирина : 624 пикселяВысота : 480 пикселейСоотношение сторон : 4:3Частота кадров : 25,000 кадров/секЦветовое пространство : YUVСубдискретизация насыщенности : 4:2:0Битовая глубина : 8 битТип развёртки : ПрогрессивнаяМетод сжатия : С потерямиБит/(Пиксели*Кадры) : 0.274Размер потока : 706 Мбайт (95%)Библиотека кодирования : XviD 73
    АудиоИдентификатор : 1Формат : AC-3Формат/Информация : Audio Coding 3Расширение режима : CM (complete main)Параметр Endianness формата : BigИдентификатор кодека : 2000Продолжительность : 48 м.Вид битрейта : ПостоянныйБитрейт : 96,0 Кбит/секКаналы : 1 каналРасположение каналов : Front: CЧастота : 48,0 КГцБитовая глубина : 16 битМетод сжатия : С потерямиРазмер потока : 33,0 Мбайт (4%)Выравнивание : Разделение по промежуткамПродолжительность промежутка : 40 мс. (1,00 видеокадр)Время предзагрузки промежутка : 500 мс.


    Релиз группы:

    Download .torrent

    Download free and at maximum speed!

    How to Download? · What is a torrent? · Ratings and Limitations

    The site does not extend and does not store electronic(digital) versions of products, and only gives access to a reference catalogue created by users on torrent-files which contain only lists of the hash-sums, the earnest entreaty, with complaints(abuse) to access directly to the user. Files for an exchange on tracker are given by users of a site, and the administration does not bear the responsibility for their maintenance. The request to not fill in the files protected by copyrights, and also files of the illegal maintenance!

    [Profile] [PM]
    Display posts from previous:    
    Reply to topic

    The time now is: Today 22:37

    All times are GMT + 3 Hours

    You cannot post new topics in this forum
    You cannot reply to topics in this forum
    You cannot edit your posts in this forum
    You cannot delete your posts in this forum
    You cannot vote in polls in this forum
    You cannot attach files in this forum
    You cannot download files in this forum