BitTorrentTracker PerecTracker.org
BitTorrentTracker PerecTracker.org
    
Регистрация  ·  Вход
 
 · 
Забыли пароль?

  • Суфражистка / Suffragette (Адам МакКей / Adam McKay) [2015, Великобритания, драма, биография, история, DVDScr] DVO (Паровоз Продакшн) + Org Eng

    Ответить на тему
     
    Автор Сообщение

    Light

    Создавать темы 31-Дек-2015 18:32

           

    [Цитировать]

    Суфражистка / SuffragetteСтрана: Великобритания
    Жанр: драма, биография, история
    Год выпуска: 2015
    Продолжительность: 01:46:34
    Перевод: Любительский (двухголосый закадровый) Паровоз Продакшн
    Cубтитры: нет
    Оригинальная аудиодорожка: Английский
    Режиссер: Сара Гаврон / Sarah Gavron
    В ролях: Кэри Маллиган, Хелена Бонем Картер, Брендан Глисон, Энн-Мэри Дафф, Мэрил Стрип, Грэйс Стоттор, Джофф Белл, Аманда Лоуренс, Шелли Лонгуорт, Адам Майкл Додд
    Описание: Фильм посвящен движению суфражисток (борьба за предоставление женщинам избирательных прав), зародившемуся в Великобритании в конце 19 века.

    Качество видео: DVDScr
    Формат видео: AVI
    Видео кодек: XviD
    Аудио кодек: AC3
    Видео: 720x304 (2.37:1), 29.970 fps, XviD build 50 ~1503 kbps avg, 0.23 bit/pixel
    Аудио#1: 48 kHz, AC3 Dolby Digital, 2/0 2 ch, ~192 kbps - Двухголоска
    Аудио#2: 48 kHz, AC3 Dolby Digital, 2/0 2 ch, ~192 kbps - Оригинал

    MediaInfo

    Complete name : Суфражистка.avi
    Format : AVI
    Format/Info : Audio Video Interleave
    File size : 1.42 GiB
    Duration : 1h 46mn
    Overall bit rate : 1 906 Kbps
    Writing application : VirtualDubMod 1.5.10.3 | www.virtualdub-fr.org || (build 2550/release)
    Writing library : VirtualDubMod build 2550/release
    Video
    ID : 0
    Format : MPEG-4 Visual
    Format profile : Advanced Simple@L5
    Format settings, BVOP : 2
    Format settings, QPel : Yes
    Format settings, GMC : No warppoints
    Format settings, Matrix : Default (H.263)
    Codec ID : XVID
    Codec ID/Hint : XviD
    Duration : 1h 46mn
    Bit rate : 1 504 Kbps
    Width : 720 pixels
    Height : 304 pixels
    Display aspect ratio : 2.35:1
    Frame rate : 29.970 fps
    Color space : YUV
    Chroma subsampling : 4:2:0
    Bit depth : 8 bits
    Scan type : Progressive
    Compression mode : Lossy
    Bits/(Pixel*Frame) : 0.229
    Stream size : 1.12 GiB (79%)
    Writing library : XviD 1.2.1 (UTC 2008-12-04)
    Audio #1
    ID : 1
    Format : AC-3
    Format/Info : Audio Coding 3
    Mode extension : CM (complete main)
    Format settings, Endianness : Big
    Codec ID : 2000
    Duration : 1h 46mn
    Bit rate mode : Constant
    Bit rate : 192 Kbps
    Channel(s) : 2 channels
    Channel positions : Front: L R
    Sampling rate : 48.0 KHz
    Compression mode : Lossy
    Stream size : 146 MiB (10%)
    Alignment : Split accross interleaves
    Interleave, duration : 33 ms (1.00 video frame)
    Interleave, preload duratio : 500 ms
    Audio #2
    ID : 2
    Format : AC-3
    Format/Info : Audio Coding 3
    Mode extension : CM (complete main)
    Format settings, Endianness : Big
    Codec ID : 2000
    Duration : 1h 46mn
    Bit rate mode : Constant
    Bit rate : 192 Kbps
    Channel(s) : 2 channels
    Channel positions : Front: L R
    Sampling rate : 48.0 KHz
    Compression mode : Lossy
    Stream size : 146 MiB (10%)
    Alignment : Split accross interleaves
    Interleave, duration : 33 ms (1.00 video frame)
    Interleave, preload duratio : 500 ms

    Скриншоты

    Oтсутствует какая-либо реклама
    Скачать .torrent

    Скачать торрент-файл бесплатно и на максимальной скорости!

    Как скачивать? · Что такое торрент? · Рейтинг и ограничения

    !ВНИМАНИЕ!
    Сайт не распространяет и не хранит электронные версии произведений, а занимается лишь лишь предоставлением доступа к создаваемому пользователями каталогу ссылок на торрент-файлы, которые содержат только списки хеш-сумм, убедительная просьба с жалобами обращаться напрямую к пользователю. Файлы для обмена на трекере предоставлены пользователями сайта, и администрация не несёт ответственности за их содержание. Просьба не заливать файлы, защищенные авторскими правами, а также файлы нелегального содержания!


    _________________
    [Профиль] [ЛС]
    Показать сообщения:    
    Ответить на тему

    Текущее время: Сегодня, в 06:03

    Часовой пояс: GMT + 2



    Вы не можете начинать темы
    Вы не можете отвечать на сообщения
    Вы не можете редактировать свои сообщения
    Вы не можете удалять свои сообщения
    Вы не можете голосовать в опросах
    Вы не можете прикреплять файлы к сообщениям
    Вы не можете скачивать файлы