Register  ·  Log in
Forgot password?

  • Новогодний почтальон / Station Nord (Жан-Клод Лорд / Jean-Claude Lord) [2002, Канада, семейный, мелодрама, комедия, VHSRip] MVO (Спайр)

    Reply to topic
    Author Message


    Post 31-Dec-2015 15:50



    Новогодний почтальон / Station NordСтрана: Канада
    Жанр: семейный, мелодрама, комедия
    Год выпуска: 2002
    Продолжительность: 01:51:33
    Перевод: Профессиональный (многоголосый закадровый) Спайр
    Cубтитры: нет
    Режиссер: Жан-Клод Лорд / Jean-Claude Lord
    В ролях: Жан Антуан Чарест, Фанни Лозье, Гастон Лепаж, Женевьева Дери, Бенуа Бриер, Алисса ЛаБелль, Рени Клод, Катрин Флорент, Роксана Годетт-Луазо, Жан Файолль мл., Натали Симар, Мишель Дэйгл
    Описание: В одном северном городке живут мальчик Самюэль и девочка Эвелин. Дедушка героя работает на почте и каждый Рождество получает тысячи писем от детей со всего земного шара, на которые сам и отвечает вместо Санты. После смерти дедушки, Самюэль и Эвелин продолжают отвечать на детские письма, не подозревая, что настоящий Санта Клаус наблюдает за ними, и приносит в их жизнь сказку.
    Доп. информация: Оцифровка лицензионной VHS (личный архив) и получение VHSRip alenavova
    Качество видео: VHSRip
    Формат видео: AVI
    Видео: 704x528 (1.33:1), 25 fps, XviD build 73 ~1676 kbps avg, 0.18 bit/pixel
    Аудио: 48 kHz, AC3 Dolby Digital, 2/0 (L,R) ch, ~192 kbps


    Новогодний почтальон - Station Nord (by alenavova).avi
    Format : AVI
    Format/Info : Audio Video Interleave
    File size : 1.46 GiB
    Duration : 1h 51mn
    Overall bit rate : 1 879 Kbps
    Movie name : Новогодний почтальон - Station Nord (by alenavova)
    Director : by alenavova
    Writing application : VirtualDubMod | || (build 2550/release)
    Copyright : Edich2
    Comment :
    ID : 0
    Format : MPEG-4 Visual
    Format profile : Advanced Simple@L5
    Format settings, BVOP : 1
    Format settings, QPel : No
    Format settings, GMC : No warppoints
    Format settings, Matrix : Custom
    Codec ID : XVID
    Codec ID/Hint : XviD
    Duration : 1h 51mn
    Bit rate : 1 677 Kbps
    Width : 704 pixels
    Height : 528 pixels
    Display aspect ratio : 4:3
    Frame rate : 25.000 fps
    Color space : YUV
    Chroma subsampling : 4:2:0
    Bit depth : 8 bits
    Scan type : Progressive
    Compression mode : Lossy
    Bits/(Pixel*Frame) : 0.180
    Stream size : 1.31 GiB (89%)
    Writing library : XviD 73
    ID : 1
    Format : AC-3
    Format/Info : Audio Coding 3
    Mode extension : CM (complete main)
    Format settings, Endianness : Big
    Codec ID : 2000
    Duration : 1h 51mn
    Bit rate mode : Constant
    Bit rate : 192 Kbps
    Channel(s) : 2 channels
    Channel positions : Front: L R
    Sampling rate : 48.0 KHz
    Bit depth : 16 bits
    Compression mode : Lossy
    Stream size : 153 MiB (10%)
    Alignment : Split accross interleaves
    Interleave, duration : 40 ms (1.00 video frame)
    Interleave, preload duration : 500 ms


    Download .torrent

    Download free and at maximum speed!

    How to Download? · What is a torrent? · Ratings and Limitations

    The site does not extend and does not store electronic(digital) versions of products, and only gives access to a reference catalogue created by users on torrent-files which contain only lists of the hash-sums, the earnest entreaty, with complaints(abuse) to access directly to the user. Files for an exchange on tracker are given by users of a site, and the administration does not bear the responsibility for their maintenance. The request to not fill in the files protected by copyrights, and also files of the illegal maintenance!

    [Profile] [PM]
    Display posts from previous:    
    Reply to topic

    The time now is: Today 17:21

    All times are GMT + 3 Hours

    You cannot post new topics in this forum
    You cannot reply to topics in this forum
    You cannot edit your posts in this forum
    You cannot delete your posts in this forum
    You cannot vote in polls in this forum
    You cannot attach files in this forum
    You cannot download files in this forum