BitTorrentTracker PerecTracker.org
BitTorrentTracker PerecTracker.org
    
Регистрация  ·  Вход
 
 · 
Забыли пароль?

  • Манхэттен / Manhattan / Сезон: 2 / Серии: 1-10 из 10 (Томас Шламми, Пэрис Барклай, Билл Д’Элиа) [2015, драма, WEB-DLRip] MVO (BaibaKo) + Original

    Ответить на тему
     
    Автор Сообщение

    rechyn

    Создавать темы 31-Дек-2015 14:45

           

    [Цитировать]

    Манхэттен / Manhattan-Год выпуска: 2015
    Страна: США
    Жанр: драма
    Продолжительность: 00:55:00-Перевод: Профессиональный (многоголосый закадровый) BaibaKo-Режиссёр: Томас Шламми, Пэрис Барклай, Билл Д’Элиа-В ролях: Алексия Фаст, Джон Бенжамин Хикки, Кристофер Денэм, Дэниел Стерн, Майкл Чернус, Оливия Уильямс, Эшли Цукерман, Альма Сиснерос и др.-Описание: Действие драматического сериала начинается во время Второй мировой войны, в начале 1940-х годов прошлого века. Американское правительство создает особую программу по разработке ядерного оружия — «Проект „Манхэттен“». К работе привлекаются самые опытные ученые разных специальностей, которых вербуют и переправляют в пустыню Нью-Мексико, в Лос-Аламос. Участникам проекта каждый день приходится идти на сделку со своей совестью, выбирая между моральными ценностями и долгом, скрывая правду о своей работе от самых близких людей... Сериал «Манхэттен» основан на реальных событиях.--Качество: WEB-DLRip
    Формат: AVI
    Видео: XviD, 720x400 (16:9), 23,976 fps, ~1500 kbps
    Аудио 1: MP3, 48 kHz, 2 ch, 192 kbps - Rus
    Аудио 2: MP3, 48 kHz, 2 ch, 192 kbps - Eng
    Субтитры: отсутствуют-

    Релиз

    Перевод: vipere
    Озвучка: Анастасия Флигина, Елена Григорьева, Дмитрий Глебов, Виталий Ткаченко и Дмитрий Нежельский
    Монтаж: Виталий Ткаченко

    MediaInfo

    Общее
    Полное имя : X:\ATorrent\Manhattan (Season 02) BBko\Manhattan.s02e01.WEB-DLRip.XviD.Rus.Eng.BaibaKo.avi
    Формат : AVI
    Формат/Информация : Audio Video Interleave
    Размер файла : 746 Мбайт
    Продолжительность : 54 м.
    Общий поток : 1898 Кбит/сек
    Программа кодирования : VirtualDubMod 1.5.10.3 | www.virtualdub-fr.org || (build 2550/release)
    Библиотека кодирования : VirtualDubMod build 2550/release
    Видео
    Идентификатор : 0
    Формат : MPEG-4 Visual
    Профиль формата : Advanced Simple@L5
    Параметр BVOP формата : 2
    Параметр QPel формата : Нет
    Параметр GMC формата : Без точки перехода
    Параметр матрицы формата : Default (MPEG)
    Идентификатор кодека : XVID
    Идентификатор кодека/Подсказка : XviD
    Продолжительность : 54 м.
    Битрейт : 1500 Кбит/сек
    Ширина : 720 пикселей
    Высота : 400 пикселей
    Соотношение сторон : 16:9
    Частота кадров : 23,976 кадра/сек
    Цветовое пространство : YUV
    Субдискретизация насыщенности : 4:2:0
    Битовая глубина : 8 бит
    Тип развёртки : Прогрессивная
    Метод сжатия : С потерями
    Бит/(Пиксели*Кадры) : 0.217
    Размер потока : 590 Мбайт (79%)
    Библиотека кодирования : XviD 73
    Аудио #1
    Идентификатор : 1
    Формат : MPEG Audio
    Версия формата : Version 1
    Профиль формата : Layer 3
    Режим : Joint stereo
    Расширение режима : MS Stereo
    Идентификатор кодека : 55
    Идентификатор кодека/Подсказка : MP3
    Продолжительность : 54 м.
    Вид битрейта : Постоянный
    Битрейт : 192 Кбит/сек
    Каналы : 2 канала
    Частота : 48,0 КГц
    Метод сжатия : С потерями
    Размер потока : 75,5 Мбайт (10%)
    Выравнивание : Соединение по промежуткам
    Продолжительность промежутка : 42 мс. (1,00 видеокадр)
    Время предзагрузки промежутка : 504 мс.
    Аудио #2
    Идентификатор : 2
    Формат : MPEG Audio
    Версия формата : Version 1
    Профиль формата : Layer 3
    Режим : Joint stereo
    Расширение режима : MS Stereo
    Идентификатор кодека : 55
    Идентификатор кодека/Подсказка : MP3
    Продолжительность : 54 м.
    Вид битрейта : Постоянный
    Битрейт : 192 Кбит/сек
    Каналы : 2 канала
    Частота : 48,0 КГц
    Метод сжатия : С потерями
    Размер потока : 75,5 Мбайт (10%)
    Выравнивание : Соединение по промежуткам
    Продолжительность промежутка : 42 мс. (1,00 видеокадр)
    Время предзагрузки промежутка : 504 мс.

    Скриншоты

    -
    Скачать .torrent

    Скачать торрент-файл бесплатно и на максимальной скорости!

    Как скачивать? · Что такое торрент? · Рейтинг и ограничения

    !ВНИМАНИЕ!
    Сайт не распространяет и не хранит электронные версии произведений, а занимается лишь лишь предоставлением доступа к создаваемому пользователями каталогу ссылок на торрент-файлы, которые содержат только списки хеш-сумм, убедительная просьба с жалобами обращаться напрямую к пользователю. Файлы для обмена на трекере предоставлены пользователями сайта, и администрация не несёт ответственности за их содержание. Просьба не заливать файлы, защищенные авторскими правами, а также файлы нелегального содержания!


    _________________
    [Профиль] [ЛС]
    Показать сообщения:    
    Ответить на тему

    Текущее время: Сегодня, в 22:08

    Часовой пояс: GMT + 2



    Вы не можете начинать темы
    Вы не можете отвечать на сообщения
    Вы не можете редактировать свои сообщения
    Вы не можете удалять свои сообщения
    Вы не можете голосовать в опросах
    Вы не можете прикреплять файлы к сообщениям
    Вы не можете скачивать файлы