BitTorrentTracker PerecTracker.org
BitTorrentTracker PerecTracker.org
    
Регистрация  ·  Вход
 
 · 
Забыли пароль?

  • Оператор / Operator (Амария Олсон / Maria Olsen, Обин Олсон / Obin Olson) [2015, США, Боевик, триллер, драма HDRip] VO

    Ответить на тему
     
    Автор Сообщение

    Light

    Создавать темы 31-Дек-2015 01:52

           

    [Цитировать]

    Оператор / Operator--Страна: США
    Жанр: Боевик, триллер, драма
    Год выпуска: 2015
    Продолжительность: 01:27:00
    Перевод: Одноголосый закадровый (Хихикающий доктор)
    Cубтитры: нет
    Режиссер: Амария Олсон / Maria Olsen, Обин Олсон /Obin Olson
    В ролях: Винг Рэймс, Люк Госс, Миша Бартон, Майкл Паре, Райли Бандик, Тони ДеМилл, Морис Шевалье, Уолтер Хендрикс III, Уенделл Кинни, Саммер Перкинс
    Описание: Когда дочь оператора 911 Памелы (Mischa Barton) похищают, ее бывшей муж Джереми (Люк Госс), старший офицер полиции следует правилам похитителя и отправляется в разные места города, при этом сея хаос и разрушения. Не зная, кто и почему, полицейский с напарником пытаются перехитрить злоумышленника и спасти девочку.
    Сэмпл: http://multi-up.com/1081726
    Качество видео: HDRip
    Формат видео: AVI
    Видео: 1997 Кбит/сек 720 x 304 (2.368) 23.976
    Аудио: AC-3 384 Кбит/сек 6 каналов, 48,0 КГц

    MediaInfo

    Общее
    Полное имя : F:\Operator_.avi
    Формат : AVI
    Формат/Информация : Audio Video Interleave
    Размер файла : 1,45 Гбайт
    Продолжительность : 1 ч. 27 м.
    Общий поток : 2391 Кбит/сек
    Программа кодирования : VirtualDubMod 1.5.10.3 | www.virtualdub-fr.org || (build 2550/release)
    Библиотека кодирования : VirtualDubMod build 2550/release
    Видео
    Идентификатор : 0
    Формат : MPEG-4 Visual
    Профиль формата : Advanced Simple@L5
    Параметр BVOP формата : 1
    Параметр QPel формата : Нет
    Параметр GMC формата : Без точки перехода
    Параметр матрицы формата : Выборочная
    Идентификатор кодека : XVID
    Идентификатор кодека/Подсказка : XviD
    Продолжительность : 1 ч. 27 м.
    Битрейт : 1997 Кбит/сек
    Ширина : 720 пикселей
    Высота : 304 пикселя
    Соотношение сторон : 2,35:1
    Частота кадров : 23,976 кадра/сек
    Цветовое пространство : YUV
    Субдискретизация насыщенности : 4:2:0
    Битовая глубина : 8 бит
    Тип развёртки : Прогрессивная
    Метод сжатия : С потерями
    Бит/(Пиксели*Кадры) : 0.381
    Размер потока : 1,21 Гбайт (84%)
    Библиотека кодирования : XviD 73
    Аудио
    Идентификатор : 1
    Формат : AC-3
    Формат/Информация : Audio Coding 3
    Расширение режима : CM (complete main)
    Параметр Endianness формата : Big
    Идентификатор кодека : 2000
    Продолжительность : 1 ч. 27 м.
    Вид битрейта : Постоянный
    Битрейт : 384 Кбит/сек
    Каналы : 6 каналов
    Расположение каналов : Front: L C R, Side: L R, LFE
    Частота : 48,0 КГц
    Битовая глубина : 16 бит
    Метод сжатия : С потерями
    Размер потока : 239 Мбайт (16%)
    Выравнивание : Разделение по промежуткам
    Продолжительность промежутка : 42 мс. (1,00 видеокадр)
    Время предзагрузки промежутка : 500 мс.

    Скриншот c названием фильма

    Скриншоты

    Скачать .torrent

    Скачать торрент-файл бесплатно и на максимальной скорости!

    Как скачивать? · Что такое торрент? · Рейтинг и ограничения

    !ВНИМАНИЕ!
    Сайт не распространяет и не хранит электронные версии произведений, а занимается лишь лишь предоставлением доступа к создаваемому пользователями каталогу ссылок на торрент-файлы, которые содержат только списки хеш-сумм, убедительная просьба с жалобами обращаться напрямую к пользователю. Файлы для обмена на трекере предоставлены пользователями сайта, и администрация не несёт ответственности за их содержание. Просьба не заливать файлы, защищенные авторскими правами, а также файлы нелегального содержания!


    _________________
    [Профиль] [ЛС]
    Показать сообщения:    
    Ответить на тему

    Текущее время: Сегодня, в 18:38

    Часовой пояс: GMT + 2



    Вы не можете начинать темы
    Вы не можете отвечать на сообщения
    Вы не можете редактировать свои сообщения
    Вы не можете удалять свои сообщения
    Вы не можете голосовать в опросах
    Вы не можете прикреплять файлы к сообщениям
    Вы не можете скачивать файлы