Register  ·  Log in
Forgot password?

  • Все могут короли / Серии: 1- 10 из 10 (Алан Смити) [2015, комедия, HDTVRip]

    Reply to topic
    Author Message


    Post 31-Dec-2015 02:14



    Все могут короли
    Год выпуска: 2015
    Производство: Россия,Кинокомпания «Марс Медиа»
    Жанр: комедия
    Продолжительность: 00:46:00
    Субтитры: нет
    Режиссёр: Ольга Музалева
    В ролях: Максим Галкин, Александр Балуев, Мария Сёмкина, Полина Филоненко, Александр Сирин, Татьяна Рудина, Александр Пацевич, Светлана Косолапова, Любовь Германова, Дмитрий Мухамадеев, Алексей Весёлкин (младший), Максим Севриновский, Николай Сахаров, Сергей Брюн, Дмитрий Соломыкин, Андрей Заводюк, Александр Ткачев (III), Саша Булатов
    Описание: Что может случиться, если поменять местами средневекового герцога Майкла Каннингема (Максим Галкин) и простого московского менеджера Мишу Николаева (Максим Галкин), похожих друг на друга как две капли воды? Миша уносит в Средневековье новенький смартфон, а с Майклом в Москве остаются лишь его бескомпромиссность, и привычка решать все проблемы «огнем и мечом».
    Качество: HDTVRip
    Формат: AVI
    Видео кодек: XviD
    Аудио кодек: AC3
    Видео: 720x400 (1.80:1), 25 fps, XviD build 73 ~1 664 Kbps avg, 0.22 bit/pixel
    Аудио: 48 kHz, AC3 Dolby Digital, 2/0 (L,R) ch, ~192.00 kbps avg


    Complete name : Y:\раздачи\Все могут короли.2015.HDTVRip.RG.Russkie.serialy.&.Files-x.Все могут короли.2015.HDTVRip.RG.Russkie.serialy.&.Files-x.avi
    Format : AVI
    Format/Info : Audio Video Interleave
    File size : 549 MiB
    Duration : 40mn 31s
    Overall bit rate : 1 895 Kbps
    Writing application : VirtualDubMod | || (build 2550/release)
    Writing library : VirtualDubMod build 2550/release
    ID : 0
    Format : MPEG-4 Visual
    Format profile : Advanced Simple@L5
    Format settings, BVOP : 1
    Format settings, QPel : No
    Format settings, GMC : No warppoints
    Format settings, Matrix : Custom
    Codec ID : XVID
    Codec ID/Hint : XviD
    Duration : 40mn 31s
    Bit rate : 1 694 Kbps
    Width : 720 pixels
    Height : 400 pixels
    Display aspect ratio : 16:9
    Frame rate : 25.000 fps
    Color space : YUV
    Chroma subsampling : 4:2:0
    Bit depth : 8 bits
    Scan type : Progressive
    Compression mode : Lossy
    Bits/(Pixel*Frame) : 0.235
    Stream size : 491 MiB (89%)
    Writing library : XviD 73
    ID : 1
    Format : AC-3
    Format/Info : Audio Coding 3
    Mode extension : CM (complete main)
    Format settings, Endianness : Big
    Codec ID : 2000
    Duration : 40mn 31s
    Bit rate mode : Constant
    Bit rate : 192 Kbps
    Channel(s) : 2 channels
    Channel positions : Front: L R
    Sampling rate : 48.0 KHz
    Compression mode : Lossy
    Stream size : 55.7 MiB (10%)
    Alignment : Split accross interleaves
    Interleave, duration : 40 ms (1.00 video frame)
    Interleave, preload duratio : 500 ms


    Download .torrent

    Download free and at maximum speed!

    How to Download? · What is a torrent? · Ratings and Limitations

    The site does not extend and does not store electronic(digital) versions of products, and only gives access to a reference catalogue created by users on torrent-files which contain only lists of the hash-sums, the earnest entreaty, with complaints(abuse) to access directly to the user. Files for an exchange on tracker are given by users of a site, and the administration does not bear the responsibility for their maintenance. The request to not fill in the files protected by copyrights, and also files of the illegal maintenance!

    [Profile] [PM]
    Display posts from previous:    
    Reply to topic

    The time now is: Today 04:22

    All times are GMT + 3 Hours

    You cannot post new topics in this forum
    You cannot reply to topics in this forum
    You cannot edit your posts in this forum
    You cannot delete your posts in this forum
    You cannot vote in polls in this forum
    You cannot attach files in this forum
    You cannot download files in this forum