BitTorrentTracker PerecTracker.org
BitTorrentTracker PerecTracker.org
    
Регистрация  ·  Вход
 
 · 
Забыли пароль?

  • Марсианин / The Martian (Ридли Скотт / Ridley Scott) [2015, США, Великобритания, фантастика, приключения, WEB-DL 720p] Dub Rus,Ukr (iTunes) + Sub Rus, Ukr, Eng + Original Eng

    Ответить на тему
     
    Автор Сообщение

    rechyn

    Создавать темы 30-Дек-2015 22:18

           

    [Цитировать]

    Марсианин / The Martian
    Страна: США, Великобритания
    Жанр: фантастика, приключения
    Год выпуска: 2015
    Продолжительность: 02:21:51-Перевод: Профессиональный (дублированный) iTunes
    Cубтитры: русские, английскиe, украинские
    Оригинальная аудиодорожка: английский-Режиссер: Ридли Скотт / Ridley Scott-В ролях: Мэтт Дэймон, Джессика Честейн, Чиветель Эджиофор, Кристен Уиг, Джефф Дэниелс, Майкл Пенья, Шон Бин, Кейт Мара, Себастьян Стэн, Аксель Хенни
    Описание: Марсианская миссия «Арес-3» в процессе работы была вынуждена экстренно покинуть планету из-за надвигающейся песчаной бури. Инженер и биолог Марк Уотни получил повреждение скафандра во время песчаной бури. Сотрудники миссии, посчитав его погибшим, эвакуировались с планеты, оставив Марка одного.
    Очнувшись, Уотни обнаруживает, что связь с Землёй отсутствует, но при этом полностью функционирует жилой модуль. Главный герой начинает искать способ продержаться на имеющихся запасах еды, витаминов, воды и воздуха ещё 4 года до прилёта следующей миссии «Арес-4».-Тип релиза: WEB-DL 720p
    Контейнер: MKV-Видео: MPEG4 Video (H264) 1916x796p, ~ 5280 kbps, 23,976 fps-Аудио 1: Russian: 48 kHz, AC3, 3/2 (L,C,R,l,r) + LFE ch, ~384.00 kbps avg
    Аудио 2: Ukrainian: 48 kHz, AAC, 2/0 (L,R) ch, ~160.00 kbps avg
    Аудио 3: English: 48 kHz, AC3, 3/2 (L,C,R,l,r) + LFE ch, ~384.00 kbps avg

    MediaInfo

    Общее
    Уникальный идентификатор : 208007305956293850907934267570352296811 (0x9C7CBFFAB550308A9E1B16AEE390136B)
    Полное имя : D:\The.Martian.1080p.WEB-DL.mkv
    Формат : Matroska
    Версия формата : Version 2
    Размер файла : 5,24 Гбайт
    Продолжительность : 2 ч. 22 м.
    Общий поток : 5280 Кбит/сек
    Название фильма : The Martian (2015) - Release for HDCLUB
    Дата кодирования : UTC 2015-12-27 22:17:53
    Программа кодирования : mkvmerge v3.4.0 ('Rapunzel') built on May 15 2010 09:38:20
    Библиотека кодирования : libebml v0.8.0 + libmatroska v0.9.0
    Видео
    Идентификатор : 1
    Формат : AVC
    Формат/Информация : Advanced Video Codec
    Профиль формата : High@L4.0
    Параметр CABAC формата : Да
    Параметр ReFrames формата : 5 кадров
    Идентификатор кодека : V_MPEG4/ISO/AVC
    Продолжительность : 2 ч. 22 м.
    Ширина : 1916 пикселей
    Высота : 796 пикселей
    Соотношение сторон : 2,40:1
    Режим частоты кадров : Постоянный
    Частота кадров : 23,976 кадра/сек
    Цветовое пространство : YUV
    Субдискретизация насыщенности : 4:2:0
    Битовая глубина : 8 бит
    Тип развёртки : Прогрессивная
    Заголовок : The Martian (2015) - Release for HDCLUB
    Язык : English
    Default : Да
    Forced : Нет
    Основные цвета : BT.709
    Характеристики трансфера : BT.709
    Коэффициенты матрицы : BT.709
    colour_range : Limited
    Аудио #1
    Идентификатор : 2
    Формат : AC-3
    Формат/Информация : Audio Coding 3
    Расширение режима : CM (complete main)
    Параметр Endianness формата : Big
    Идентификатор кодека : A_AC3
    Продолжительность : 2 ч. 22 м.
    Вид битрейта : Постоянный
    Битрейт : 384 Кбит/сек
    Каналы : 6 каналов
    Расположение каналов : Front: L C R, Side: L R, LFE
    Частота : 48,0 КГц
    Битовая глубина : 16 бит
    Метод сжатия : С потерями
    Размер потока : 390 Мбайт (7%)
    Заголовок : AC3 5.1 @ 384 kbps - DUB, iTunes
    Язык : Russian
    Default : Да
    Forced : Нет
    Аудио #2
    Идентификатор : 3
    Формат : AAC
    Формат/Информация : Advanced Audio Codec
    Профиль формата : LC
    Идентификатор кодека : A_AAC
    Продолжительность : 2 ч. 22 м.
    Каналы : 2 канала
    Расположение каналов : Front: L R
    Частота : 48,0 КГц
    Метод сжатия : С потерями
    Заголовок : AAC 2.0 @ 160 kbps - DUB, iTunes
    Язык : Ukrainian
    Default : Нет
    Forced : Нет
    Аудио #3
    Идентификатор : 4
    Формат : AC-3
    Формат/Информация : Audio Coding 3
    Расширение режима : CM (complete main)
    Параметр Endianness формата : Big
    Идентификатор кодека : A_AC3
    Продолжительность : 2 ч. 22 м.
    Вид битрейта : Постоянный
    Битрейт : 384 Кбит/сек
    Каналы : 6 каналов
    Расположение каналов : Front: L C R, Side: L R, LFE
    Частота : 48,0 КГц
    Битовая глубина : 16 бит
    Метод сжатия : С потерями
    Размер потока : 390 Мбайт (7%)
    Заголовок : AC3 5.1 @ 384 kbps
    Язык : English
    Default : Нет
    Forced : Нет
    Текст #1
    Идентификатор : 5
    Формат : UTF-8
    Идентификатор кодека : S_TEXT/UTF8
    Идентификатор кодека/Информация : UTF-8 Plain Text
    Заголовок : Forced, iTunes
    Язык : Russian
    Default : Да
    Forced : Нет
    Текст #2
    Идентификатор : 6
    Формат : UTF-8
    Идентификатор кодека : S_TEXT/UTF8
    Идентификатор кодека/Информация : UTF-8 Plain Text
    Заголовок : iTunes
    Язык : Russian
    Default : Нет
    Forced : Нет
    Текст #3
    Идентификатор : 7
    Формат : UTF-8
    Идентификатор кодека : S_TEXT/UTF8
    Идентификатор кодека/Информация : UTF-8 Plain Text
    Заголовок : iTunes
    Язык : Ukrainian
    Default : Нет
    Forced : Нет
    Текст #4
    Идентификатор : 8
    Формат : UTF-8
    Идентификатор кодека : S_TEXT/UTF8
    Идентификатор кодека/Информация : UTF-8 Plain Text
    Заголовок : Forced, iTunes
    Язык : English
    Default : Нет
    Forced : Нет
    Текст #5
    Идентификатор : 9
    Формат : UTF-8
    Идентификатор кодека : S_TEXT/UTF8
    Идентификатор кодека/Информация : UTF-8 Plain Text
    Заголовок : iTunes
    Язык : English
    Default : Нет
    Forced : Нет
    Меню
    00:00:00.000 : en:Chapter 01
    00:03:21.000 : en:Chapter 02
    00:10:07.000 : en:Chapter 03
    00:15:22.000 : en:Chapter 04
    00:18:23.000 : en:Chapter 05
    00:21:32.000 : en:Chapter 06
    00:24:25.000 : en:Chapter 07
    00:28:49.000 : en:Chapter 08
    00:31:33.000 : en:Chapter 09
    00:34:18.000 : en:Chapter 10
    00:39:10.000 : en:Chapter 11
    00:41:18.000 : en:Chapter 12
    00:46:19.000 : en:Chapter 13
    00:49:21.000 : en:Chapter 14
    00:56:11.000 : en:Chapter 15
    00:59:35.000 : en:Chapter 16
    01:02:19.000 : en:Chapter 17
    01:06:48.000 : en:Chapter 18
    01:09:47.000 : en:Chapter 19
    01:13:45.000 : en:Chapter 20
    01:18:32.000 : en:Chapter 21
    01:22:46.000 : en:Chapter 22
    01:30:34.000 : en:Chapter 23
    01:37:23.000 : en:Chapter 24
    01:43:24.000 : en:Chapter 25
    01:46:08.000 : en:Chapter 26
    01:50:11.000 : en:Chapter 27
    01:54:00.000 : en:Chapter 28
    01:57:41.000 : en:Chapter 29
    02:04:33.000 : en:Chapter 30
    02:10:56.000 : en:Chapter 31
    02:13:19.000 : en:Chapter 32

    Скриншоты

    Скачать .torrent

    Скачать торрент-файл бесплатно и на максимальной скорости!

    Как скачивать? · Что такое торрент? · Рейтинг и ограничения

    !ВНИМАНИЕ!
    Сайт не распространяет и не хранит электронные версии произведений, а занимается лишь лишь предоставлением доступа к создаваемому пользователями каталогу ссылок на торрент-файлы, которые содержат только списки хеш-сумм, убедительная просьба с жалобами обращаться напрямую к пользователю. Файлы для обмена на трекере предоставлены пользователями сайта, и администрация не несёт ответственности за их содержание. Просьба не заливать файлы, защищенные авторскими правами, а также файлы нелегального содержания!


    _________________
    [Профиль] [ЛС]
    Показать сообщения:    
    Ответить на тему

    Текущее время: Сегодня, в 03:06

    Часовой пояс: GMT + 2



    Вы не можете начинать темы
    Вы не можете отвечать на сообщения
    Вы не можете редактировать свои сообщения
    Вы не можете удалять свои сообщения
    Вы не можете голосовать в опросах
    Вы не можете прикреплять файлы к сообщениям
    Вы не можете скачивать файлы