BitTorrentTracker PerecTracker.org
BitTorrentTracker PerecTracker.org
    
Регистрация  ·  Вход
 
 · 
Забыли пароль?

  • Последние пантеры / The Last Panthers / Сезон: 1 / Серии: 1-6 из 6 (Йохан Ренк) [2015, боевик, драма, BDRip 1080p] MVO (Причудики & Jimmy J.) + Original

    Ответить на тему
     
    Автор Сообщение

    rechyn

    Создавать темы 30-Дек-2015 22:07

           

    [Цитировать]

    Последние пантеры / The Last Panthers
    Год выпуска: 2015
    Страна: Великобритания, Франция
    Жанр: боевик, драма
    Продолжительность: ~ 50 мин.
    Перевод: Любительский (многоголосый закадровый) Причудики & Jimmy J.
    Режиссёр: Йохан Ренк
    В ролях: Горан Богдан, Саманта Мортон, Джон Хёрт, Тахар Рахим, Игор Бенчина, Янн Эбонж, Кобна Холдбрук-Смит, Мусса Мааскри, Адам Нина, Фарида Рахуадж
    Описание: Сюжет повествует о реально существующей знаменитой интернациональной банде воров «Розовые пантеры», которая специализируется на краже драгоценностей. Эти ребята на мелочи не размениваются — обычно ценность их трофеев исчисляется десятками миллионов евро, поэтому каждое их новое ограбление обычно поднимает большой шум в мировой прессе. Тем не менее, команда международных экспертов попытается схватить неуловимых воров хотя бы в телевизионной реальности.
    Сэмпл
    Качество: BDRip 1080p
    Формат: MKV
    Видео: 1920x800 (16/9), 25.000 fps, x264@L4.1, ~ 9 466 Kbps avg, 0.247 bit/pixel
    Аудио: 48.0 kHz, AC3 Dolby Digital, 3/2 (L,C,R,l,r) + LFE ch, ~640 kbps Rus
    Аудио: 48.0 kHz, DTS, 3/2 (L,C,R,l,r) + LFE ch, ~1510 kbps Eng
    Субтитры: отсутствуют

    MediaInfo

    Complete name : Panthers.S01E01.1080p.BluRay.Rus.Eng-Pri4udiki.mkv
    Format : Matroska
    Format version : Version 4 / Version 2
    File size : 4.07 GiB
    Duration : 50mn 7s
    Overall bit rate : 11.6 Mbps
    Encoded date : UTC 2015-11-19 21:45:49
    Writing application : mkvmerge v6.2.0 ('Promised Land') built on Apr 28 2013 12:22:01
    Writing library : libebml v1.3.0 + libmatroska v1.4.0
    Video
    ID : 1
    Format : AVC
    Format/Info : Advanced Video Codec
    Format profile : High@L4.1
    Format settings, CABAC : Yes
    Format settings, ReFrames : 5 frames
    Codec ID : V_MPEG4/ISO/AVC
    Duration : 50mn 7s
    Bit rate : 9 466 Kbps
    Width : 1 920 pixels
    Height : 800 pixels
    Display aspect ratio : 2.40:1
    Frame rate : 25.000 fps
    Color space : YUV
    Chroma subsampling : 4:2:0
    Bit depth : 8 bits
    Scan type : Progressive
    Bits/(Pixel*Frame) : 0.247
    Stream size : 3.23 GiB (80%)
    Writing library : x264 core 148 r2638 7599210
    Encoding settings : cabac=1 / ref=5 / deblock=1:0:0 / analyse=0x3:0x133 / me=umh / subme=8 / psy=1 / psy_rd=1.00:0.00 / mixed_ref=1 / me_range=16 / chroma_me=1 / trellis=1 / 8x8dct=1 / cqm=0 / deadzone=21,11 / fast_pskip=0 / chroma_qp_offset=-2 / threads=6 / lookahead_threads=1 / sliced_threads=0 / nr=0 / decimate=1 / interlaced=0 / bluray_compat=0 / constrained_intra=0 / bframes=3 / b_pyramid=2 / b_adapt=2 / b_bias=0 / direct=3 / weightb=1 / open_gop=0 / weightp=2 / keyint=250 / keyint_min=25 / scenecut=40 / intra_refresh=0 / rc_lookahead=50 / rc=2pass / mbtree=1 / bitrate=9466 / ratetol=1.0 / qcomp=0.60 / qpmin=0 / qpmax=69 / qpstep=4 / cplxblur=20.0 / qblur=0.5 / ip_ratio=1.40 / aq=1:1.00
    Audio #1
    ID : 2
    Format : AC-3
    Format/Info : Audio Coding 3
    Mode extension : CM (complete main)
    Codec ID : A_AC3
    Duration : 50mn 7s
    Bit rate mode : Constant
    Bit rate : 640 Kbps
    Channel(s) : 6 channels
    Channel positions : Front: L C R, Side: L R, LFE
    Sampling rate : 48.0 KHz
    Bit depth : 16 bits
    Compression mode : Lossy
    Stream size : 229 MiB (6%)
    Language : Russian
    Audio #2
    ID : 3
    Format : DTS
    Format/Info : Digital Theater Systems
    Codec ID : A_DTS
    Duration : 50mn 7s
    Bit rate mode : Constant
    Bit rate : 1 510 Kbps
    Channel(s) : 6 channels
    Channel positions : Front: L C R, Side: L R, LFE
    Sampling rate : 48.0 KHz
    Bit depth : 24 bits
    Compression mode : Lossy
    Stream size : 541 MiB (13%)
    Title : French / English / Serbian
    Language : English
    Menu
    00:00:00.000 : en:00:00:00.000
    00:07:47.480 : en:00:07:47.480
    00:17:04.880 : en:00:17:04.880
    00:25:34.720 : en:00:25:34.720
    00:33:57.160 : en:00:33:57.160
    00:42:26.960 : en:00:42:26.960

    Скриншоты


    Скачать .torrent

    Скачать торрент-файл бесплатно и на максимальной скорости!

    Как скачивать? · Что такое торрент? · Рейтинг и ограничения

    !ВНИМАНИЕ!
    Сайт не распространяет и не хранит электронные версии произведений, а занимается лишь лишь предоставлением доступа к создаваемому пользователями каталогу ссылок на торрент-файлы, которые содержат только списки хеш-сумм, убедительная просьба с жалобами обращаться напрямую к пользователю. Файлы для обмена на трекере предоставлены пользователями сайта, и администрация не несёт ответственности за их содержание. Просьба не заливать файлы, защищенные авторскими правами, а также файлы нелегального содержания!


    _________________
    [Профиль] [ЛС]
    Показать сообщения:    
    Ответить на тему

    Текущее время: Сегодня, в 08:17

    Часовой пояс: GMT + 2



    Вы не можете начинать темы
    Вы не можете отвечать на сообщения
    Вы не можете редактировать свои сообщения
    Вы не можете удалять свои сообщения
    Вы не можете голосовать в опросах
    Вы не можете прикреплять файлы к сообщениям
    Вы не можете скачивать файлы