BitTorrentTracker PerecTracker.org
BitTorrentTracker PerecTracker.org
    
Регистрация  ·  Вход
 
 · 
Забыли пароль?

  • Мамочки / Сезон: 1 / Серии: 1-20 из 20 (Валерия Ивановская, Александр Богданенко) [2015, Комедия, WEBRip]

    Ответить на тему
     
    Автор Сообщение

    rechyn

    Создавать темы 30-Дек-2015 21:42

           

    [Цитировать]

    Мамочки
    Год выпуска: 2015
    Производство: «Систерз продакшн» совместно с Yellow, Black and White и IQ Production
    Жанр: Комедия
    Продолжительность: 00:26:00
    Субтитры: Нет
    Режиссёр: Валерия Ивановская, Александр Богданенко
    В ролях: Елена Николаева (II), Александра Булычёва, Светлана Колпакова, Сергей Лавыгин, Владимир Жеребцов, Юлиана Бажанова, Виктор Добронравов, Ксения Зуева, Анна Потебня, Константин Соловьёв, Дмитрий Мазуров, Денис Жариков, Александр Ратников, Артём Падалка, Роман Полянский, Всеволод Макаров, Юлия Подозёрова, Антонина Комиссарова, Макс Бирюков, Вадим Норштейн, Анжелика Каширина, Александр Присмотров-Белов
    Описание: Сериал о трёх подругах и о том, как резко меняется жизнь после тридцати, когда на смену ночным вечеринкам приходят подгузники. Аня — новоиспечённая мама десятимесячного сына, которая только начинает сталкиваться с проблемами материнства и супружеской жизни. Иногда, кажется, что если бы не советы подруг, она бы сошла с ума от беспомощности. Юля — мама со стажем. Мать троих детей, которую настолько сильно поглощает семейный быт, что на себя давно нет ни сил, ни времени. Считает, что знает абсолютно всё о детях, мужчинах и отношениях. Вика — одинокая девушка «в поиске».
    -
    Доп. информация: Реклама отсутствует!
    -
    Все раздачи сериала: http://perectracker.org/tracker.php?f=41&nm=Мамочки%202015
    Сэмпл: https://cloud.mail.ru/public/4d18JqW69MYb/%D0%9C%D0...Rip.by.simka.avi
    Качество: WEBRip
    Формат: AVI
    Видео кодек: XviD
    Аудио кодек: MP3
    Видео: 720x400, 25 fps, XviD, ~1550 kbps, 0.229 bit/pixel
    Аудио: 48 kHz, MPEG Layer 3, 2 ch, 192 kbps

    MI

    Общее
    Полное имя : U:\Сериалы (2015)\Мамочки (2015) WEB-DLRip\Мамочки.(01.seriya).2015.XviD.WEB-DLRip.by.simka.avi
    Формат : AVI
    Формат/Информация : Audio Video Interleave
    Размер файла : 351 Мбайт
    Продолжительность : 27 м.
    Общий поток : 1782 Кбит/сек
    Программа кодирования : VirtualDubMod 1.5.10.3 | www.virtualdub-fr.org || (build 2550/release)
    Библиотека кодирования : VirtualDubMod build 2550/release
    Видео
    Идентификатор : 0
    Формат : MPEG-4 Visual
    Профиль формата : Advanced Simple@L5
    Параметр BVOP формата : 1
    Параметр QPel формата : Нет
    Параметр GMC формата : Без точки перехода
    Параметр матрицы формата : Default (MPEG)
    Идентификатор кодека : XVID
    Идентификатор кодека/Подсказка : XviD
    Продолжительность : 27 м.
    Битрейт : 1580 Кбит/сек
    Ширина : 720 пикселей
    Высота : 400 пикселей
    Соотношение сторон : 16:9
    Частота кадров : 25,000 кадров/сек
    Цветовое пространство : YUV
    Субдискретизация насыщенности : 4:2:0
    Битовая глубина : 8 бит
    Тип развёртки : Прогрессивная
    Метод сжатия : С потерями
    Бит/(Пиксели*Кадры) : 0.219
    Размер потока : 311 Мбайт (89%)
    Библиотека кодирования : XviD 1.2.1 (UTC 2008-12-04)
    Аудио
    Идентификатор : 1
    Формат : MPEG Audio
    Версия формата : Version 1
    Профиль формата : Layer 3
    Режим : Joint stereo
    Расширение режима : MS Stereo
    Идентификатор кодека : 55
    Идентификатор кодека/Подсказка : MP3
    Продолжительность : 27 м.
    Вид битрейта : Постоянный
    Битрейт : 192 Кбит/сек
    Каналы : 2 канала
    Частота : 48,0 КГц
    Метод сжатия : С потерями
    Размер потока : 37,8 Мбайт (11%)
    Выравнивание : Соединение по промежуткам
    Продолжительность промежутка : 40 мс. (1,00 видеокадр)
    Время предзагрузки промежутка : 504 мс.
    Библиотека кодирования : LAME3.99r
    Настройки программы : -m j -V 4 -q 2 -lowpass 18.6 -b 192

    Скриншоты

    Скачать .torrent

    Скачать торрент-файл бесплатно и на максимальной скорости!

    Как скачивать? · Что такое торрент? · Рейтинг и ограничения

    !ВНИМАНИЕ!
    Сайт не распространяет и не хранит электронные версии произведений, а занимается лишь лишь предоставлением доступа к создаваемому пользователями каталогу ссылок на торрент-файлы, которые содержат только списки хеш-сумм, убедительная просьба с жалобами обращаться напрямую к пользователю. Файлы для обмена на трекере предоставлены пользователями сайта, и администрация не несёт ответственности за их содержание. Просьба не заливать файлы, защищенные авторскими правами, а также файлы нелегального содержания!


    _________________
    [Профиль] [ЛС]
    Показать сообщения:    
    Ответить на тему

    Текущее время: Сегодня, в 06:55

    Часовой пояс: GMT + 2



    Вы не можете начинать темы
    Вы не можете отвечать на сообщения
    Вы не можете редактировать свои сообщения
    Вы не можете удалять свои сообщения
    Вы не можете голосовать в опросах
    Вы не можете прикреплять файлы к сообщениям
    Вы не можете скачивать файлы