BitTorrentTracker PerecTracker.org
BitTorrentTracker PerecTracker.org
    
Регистрация  ·  Вход
 
 · 
Забыли пароль?

  • Жизнь только начинается / Сезон: 1 / Серии: 1-4 из 4 (Стас Иванов) [2015, Комедия, HDTVRip]

    Ответить на тему
     
    Автор Сообщение

    rechyn

    Создавать темы 30-Дек-2015 21:25

           

    [Цитировать]

    Жизнь только начинаетсяГод выпуска: 2015
    Производство: Россия, Ярсинима, НТВ-КИНО
    Жанр: Комедия
    Продолжительность: ~00:44:00
    Субтитры: нет
    Режиссёр: Стас Иванов
    В ролях: Дмитрий Миллер, Анна Носатова, Максим Лагашкин, Александр Робак, Валерия Ланская, Алексей Федькин, Галина Петрова, Дмитрий Лавров (III), Михаил Гаврилов (II), Лика Рулла, Юрий Круглов, Яна Чигир, Юрий Ваксман, Анастасия Масленникова, Павел Новиков, Владимир Устюгов, Елена Масленникова, Роман Хардиков, Глеб Данилов, Павел Попов (II), Дмитрий Бедерин
    Описание: Анна Дронова — успешная бизнесвумен, с легкостью управляющая крупной косметической фирмой. Вот только личного счастья у женщины нет. Устав от одиночества, женщина отправляется к психотерапевту Петру. Специалист советует Анне встретиться с людьми, которые были в ее жизни раньше и ценили ее. Главная героиня бросает все дела и вместе с охранником и личным помощником отправляется в путешествие, чтобы встретиться с бывшим мужем и одноклассником, который был в нее влюблен...
    Жизнь только начинается
    Семпл
    Качество: HDTVRip
    Формат: AVI
    Видео кодек: XviD
    Аудио кодек: AC3
    Видео: 720x400 (1.80:1), 25 fps, XviD build 73 ~1695 kbps avg, 0.22 bit/pixel
    Аудио: 48 kHz, AC3 Dolby Digital, 2/0 (L,R) ch, ~192.00 kbps avg

    MediaInfo

    General
    Complete name : D:\Vytas\Video\Zyzn.tolko.nacinaetsia.2015.HDTVRip.Files-x.Zyzn.tolko.nacinaetsia.2015.HDTVRip.Files-x.avi
    Format : AVI
    Format/Info : Audio Video Interleave
    File size : 600 MiB
    Duration : 44mn 14s
    Overall bit rate : 1 896 Kbps
    Writing application : VirtualDubModRus 1.5.10.2 (build 2542/release)
    Writing library : VirtualDubMod build 2542/release
    Video
    ID : 0
    Format : MPEG-4 Visual
    Format profile : Advanced Simple@L5
    Format settings, BVOP : 1
    Format settings, QPel : No
    Format settings, GMC : No warppoints
    Format settings, Matrix : Custom
    Codec ID : XVID
    Codec ID/Hint : XviD
    Duration : 44mn 14s
    Bit rate : 1 695 Kbps
    Width : 720 pixels
    Height : 400 pixels
    Display aspect ratio : 16:9
    Frame rate : 25.000 fps
    Color space : YUV
    Chroma subsampling : 4:2:0
    Bit depth : 8 bits
    Scan type : Progressive
    Compression mode : Lossy
    Bits/(Pixel*Frame) : 0.235
    Stream size : 536 MiB (89%)
    Writing library : XviD 73
    Audio
    ID : 1
    Format : AC-3
    Format/Info : Audio Coding 3
    Mode extension : CM (complete main)
    Format settings, Endianness : Big
    Codec ID : 2000
    Duration : 44mn 14s
    Bit rate mode : Constant
    Bit rate : 192 Kbps
    Channel(s) : 2 channels
    Channel positions : Front: L R
    Sampling rate : 48.0 KHz
    Compression mode : Lossy
    Stream size : 60.8 MiB (10%)
    Alignment : Split accross interleaves
    Interleave, duration : 40 ms (1.00 video frame)
    Interleave, preload duratio : 500 ms
    Сторонней рекламы нет!

    Скриншоты

    Скачать .torrent

    Скачать торрент-файл бесплатно и на максимальной скорости!

    Как скачивать? · Что такое торрент? · Рейтинг и ограничения

    !ВНИМАНИЕ!
    Сайт не распространяет и не хранит электронные версии произведений, а занимается лишь лишь предоставлением доступа к создаваемому пользователями каталогу ссылок на торрент-файлы, которые содержат только списки хеш-сумм, убедительная просьба с жалобами обращаться напрямую к пользователю. Файлы для обмена на трекере предоставлены пользователями сайта, и администрация не несёт ответственности за их содержание. Просьба не заливать файлы, защищенные авторскими правами, а также файлы нелегального содержания!


    _________________
    [Профиль] [ЛС]
    Показать сообщения:    
    Ответить на тему

    Текущее время: Сегодня, в 20:38

    Часовой пояс: GMT + 2



    Вы не можете начинать темы
    Вы не можете отвечать на сообщения
    Вы не можете редактировать свои сообщения
    Вы не можете удалять свои сообщения
    Вы не можете голосовать в опросах
    Вы не можете прикреплять файлы к сообщениям
    Вы не можете скачивать файлы