BitTorrentTracker PerecTracker.org
BitTorrentTracker PerecTracker.org
    
Регистрация  ·  Вход
 
 · 
Забыли пароль?

  • ПостКВН. Вечерний квартал / Выпуск 84-85 [19-26.12.2015, Юмористическое шоу, концерт, сатира, DVB]

    Ответить на тему
     
    Автор Сообщение

    rechyn

    Создавать темы 30-Дек-2015 20:52

           

    [Цитировать]

    Вечерний квартал. Новый сезон
    Дата/Год выпуска: 19-26.12.2015
    Страна: Украина
    Жанр: Юмористическое шоу, концерт, сатира
    Продолжительность: ~ 01:31:00 + 01:48:00
    Перевод: Не требуется
    Русские субтитры: нет
    Оригинальная аудиодорожка: русский
    Режиссер: Студия "95 квартал"
    Телеканал: Телеканал 1+1
    Описание: Ребята из "Вечернего квартала" продолжают устанавливать свои правила. И ни авторитет звезд шоу-бизнеса, ни статус влиятельных политиков, ни сам "президент Украины" не могут этому помешать. Здесь правила одни для всех, и "квартальщики" внимательно следят за тем, чтобы все "забавные законы" соблюдались. Злостных правонарушителей ребята из Квартала определяют по отсутствию улыбки на лице. Но в сегодня такие вряд ли найдутся, ведь у нас - юмор высшего класса от "Вечернего квартала".
    Сэмпл: https://yadi.sk/d/78Ec7NswmYvJX
    Качество: DVB
    Формат: MPEG
    Видео кодек: MPEG2
    Аудио кодек: MPEG1
    Видео: MPEG2 Video 720x576 (768x576) (4:3) 25.00fps ~5500Kbps (0.552 bit/pixel)
    Аудио: MPEG Audio 48000Hz 2 channels 192 Кбит/сек

    Подробности 84:

    - центральный избирательный округ в ночь после выборов: подсчёт голосов
    - песня "Танцуй, майдан"
    - Владимир Зеленский о выборах и политической агитации
    - политическое Discovery
    - викторина с отдыхавшими в Коблево
    - Кончита Вурст - "Rise Like a Phoenix"
    - случай в семье: сын привёл невесту
    - номер комик-труппы "Маски"
    - Валерий Жидков "Тамбовский Волк" - политический прогноз на ближайшее будущее
    - интервью с новым полицейским
    - первый официальный гей-парад в Украине
    - выступление национального балета Грузии "Сухишвили"
    - шансы политиков
    - финальная песня "Билет"
    Съёмка: 25.10.2015
    Эфир: 19.12.2015
    Афишка: Shel

    Подробности 85:

    - политики в квартире Арсения Яценюка - кризис среднего бизнеса
    - песня "Петиция"
    - политическое Discovery
    - в Межигорье - интервью со страусами Януковича
    - выступление национального балета Грузии "Сухишвили"
    - новости нашего квартала - перевод на английский язык
    - Виталий Кличко в студии новостей
    - группа из России "Запрещённые балабольщики"
    - написание саундтрека к фильму "Слуги народа"
    - группа "Pianoбой" (Дмитрий Шуров) - "Кохання"
    - случай на дороге: новые полицейские и депутат - как правильно брать взятки
    - "Братья Шумахеры" - неожиданный звонок
    - Кончита Вурст - "You Are Unstoppable"
    - шансы политиков
    - финальная песня "Билет"
    Съёмка: 25.10.2015
    Эфир: 26.12.2015
    Афишка: Shel

    MediaInfo

    Общее
    Идентификатор : 1 (0x1)
    Полное имя : W:\Video1\Вечерний квартал. Новый сезон (2015)\Вечерний квартал. Выпуск 85 [2015] DVB.ts
    Формат : MPEG-TS
    Размер файла : 4,51 Гбайт
    Продолжительность : 1 ч. 48 м.
    Режим общего битрейта : Переменный
    Общий поток : 5957 Кбит/сек
    Видео
    Идентификатор : 769 (0x301)
    Идентификатор меню : 3 (0x3)
    Формат : MPEG Video
    Версия формата : Version 2
    Профиль формата : Main@Main
    Параметр BVOP формата : Да
    Параметр матрицы формата : Выборочная
    Параметр GOP формата : M=3, N=24
    Format_Settings_PictureStructure : Frame
    Идентификатор кодека : 2
    Продолжительность : 1 ч. 48 м.
    Вид битрейта : Переменный
    Битрейт : 5469 Кбит/сек
    Максимальный битрейт : 15,0 Мбит/сек
    Ширина : 720 пикселей
    Высота : 576 пикселей
    Соотношение сторон : 4:3
    Частота кадров : 25,000 кадров/сек
    Стандарт вещания : PAL
    Цветовое пространство : YUV
    Субдискретизация насыщенности : 4:2:0
    Битовая глубина : 8 бит
    Тип развёртки : Чересстрочная
    Порядок развёртки : Верхнее поле первое
    Метод сжатия : С потерями
    Бит/(Пиксели*Кадры) : 0.527
    Временной код первого кадра : 00:00:00:00
    Оригинал временного кода : Group of pictures header
    Размер потока : 4,14 Гбайт (92%)
    Аудио
    Идентификатор : 770 (0x302)
    Идентификатор меню : 3 (0x3)
    Формат : MPEG Audio
    Версия формата : Version 1
    Профиль формата : Layer 2
    Идентификатор кодека : 3
    Продолжительность : 1 ч. 48 м.
    Вид битрейта : Постоянный
    Битрейт : 192 Кбит/сек
    Каналы : 2 канала
    Частота : 48,0 КГц
    Метод сжатия : С потерями
    Задержка видео : 5 мс.
    Размер потока : 149 Мбайт (3%)
    Язык : Ukrainian

    Скриншоты


    Скачать .torrent

    Скачать торрент-файл бесплатно и на максимальной скорости!

    Как скачивать? · Что такое торрент? · Рейтинг и ограничения

    !ВНИМАНИЕ!
    Сайт не распространяет и не хранит электронные версии произведений, а занимается лишь лишь предоставлением доступа к создаваемому пользователями каталогу ссылок на торрент-файлы, которые содержат только списки хеш-сумм, убедительная просьба с жалобами обращаться напрямую к пользователю. Файлы для обмена на трекере предоставлены пользователями сайта, и администрация не несёт ответственности за их содержание. Просьба не заливать файлы, защищенные авторскими правами, а также файлы нелегального содержания!


    _________________
    [Профиль] [ЛС]
    Показать сообщения:    
    Ответить на тему

    Текущее время: Сегодня, в 00:14

    Часовой пояс: GMT + 2



    Вы не можете начинать темы
    Вы не можете отвечать на сообщения
    Вы не можете редактировать свои сообщения
    Вы не можете удалять свои сообщения
    Вы не можете голосовать в опросах
    Вы не можете прикреплять файлы к сообщениям
    Вы не можете скачивать файлы