BitTorrentTracker PerecTracker.org
BitTorrentTracker PerecTracker.org
    
Регистрация  ·  Вход
 
 · 
Забыли пароль?

  • [ATV3] Марсианин / The Martian (Ридли Скотт / Ridley Scott ) [2015, США, Великобритания, Фантастика, приключения, WEB-DL, HD (1080p)] DUB + Original + sub (rus, ukr, eng)

    Ответить на тему
     
    Автор Сообщение

    Flirldrerve

    Создавать темы 29-Дек-2015 01:24

           

    [Цитировать]

    Марсианин / The Martian
    «Верните его домой»
    7.815 / 10 8.20 / 10
    -Год выпуска: 2015
    Страна: США, Великобритания
    Жанр: Фантастика, приключения
    Продолжительность: 2:21:51
    Перевод: Дублированный (iTunes)
    Оригинальная аудиодорожка: Есть
    Cубтитры: Русские форсированные, Украинские форсированные, Русские, Украинские, Английские
    Режиссёр: Ридли Скотт
    Сценарий: Дрю Годдард, Энди Уир
    Продюсер: Марк Хаффам, Саймон Кинберг, Майкл Шефер
    Оператор: Дариуш Вольски
    Композитор: Гарри Грегсон-Уильямс
    Художник: Артур Макс, Роберт Каупер, Моника Эстан
    Монтаж: Пьетро Скалия
    В ролях: Мэтт Дэймон, Джессика Честейн, Чиветель Эджиофор, Кристен Уиг, Джефф Дэниелс, Майкл Пенья, Шон Бин, Кейт Мара, Себастьян Стэн, Аксель Хенни
    Бюджет: $108 000 000
    Сборы в США: $224 850 733
    Сборы в мире: + $261 995 391 = $486 846 124
    Сборы в России: $18 555 795
    Мировая премьера: 11 сентября 2015
    Премьера (РФ): 8 октября 2015, «Двадцатый Век Фокс СНГ»
    Описание: Марсианская миссия «Арес-3» в процессе работы была вынуждена экстренно покинуть планету из-за надвигающейся песчаной бури. Инженер и биолог Марк Уотни получил повреждение скафандра во время песчаной бури. Сотрудники миссии, посчитав его погибшим, эвакуировались с планеты, оставив Марка одного.
    Очнувшись, Уотни обнаруживает, что связь с Землёй отсутствует, но при этом полностью функционирует жилой модуль. Главный герой начинает искать способ продержаться на имеющихся запасах еды, витаминов, воды и воздуха ещё 4 года до прилёта следующей миссии «Арес-4».-Качество исходника: WEB-DL 1080p (BlueBird)
    Качество: WEB-DL
    Тип: HD (1080p)
    Контейнер: M4V
    Видео: H.264, 1916x796, 2.40:1, 4 358 Kbps, 23.976 fps
    Аудио 1: Русский/Дублированный (iTunes), AAC / 2.0 / 157 Kbps / 48.0 KHz
    Аудио 2: Английский/Оригинальная дорожка , AAC / 2.0 / 157 Kbps / 48.0 KHz
    Аудио 3: Украинский/Дублированный (iTunes), AAC / 2.0 / 157 Kbps / 44.1 KHz
    Аудио 4: Русский/Дублированный (iTunes), AC-3 / 5.1 / 384 Kbps / 48.0 KHz
    Аудио 5: Английский/Оригинальная дорожка , AC-3 / 5.1 / 384 Kbps / 48.0 KHz
    Субтитры 1: Русские форсированные
    Субтитры 2: Украинские форсированные
    Субтитры 3: Русские полные
    Субтитры 4: Украинские полные
    Субтитры 5: Английские полные
    -

    iTunes Meta Tags

    Sort Name: Martian
    XID: Apple:vendor_id:2015-841700
    contentID: 1039586890
    Copyright: © 2015 Twentieth Century Fox Film Corporation. All rights reserved.
    Screenwriters: Дрю Годдард, Энди Уир
    Producers: Марк Хаффам, Саймон Кинберг, Майкл Шефер
    Director: Ридли Скотт
    Cast: Мэтт Дэймон, Джессика Честейн, Чиветель Эджиофор, Кристен Уиг, Джефф Дэниелс, Майкл Пенья, Шон Бин, Кейт Мара, Себастьян Стэн, Аксель Хенни, Сергей Быстрицкий, Елена Харитонова, Сергей Чихачев, Дарья Фролова, Сергей Колесников
    Studio: 20th Century Fox
    Rating: 4
    Long Description: Марсианская миссия "Арес-3" в процессе работы была вынуждена экстренно покинуть планету из-за надвигающейся песчаной бури. Инженер и биолог Марк Уотни получил повреждение скафандра во время песчаной бури. Сотрудники миссии, посчитав его погибшим, эвакуировались с планеты, оставив Марка одного.
    Очнувшись, Уотни обнаруживает, что связь с Землёй отсутствует, но при этом полностью функционирует жилой модуль. Главный герой начинает искать способ продержаться на имеющихся запасах еды, витаминов, воды и воздуха ещё 4 года до прилёта следующей миссии "Арес-4".
    Description: Марсианская миссия "Арес-3" в процессе работы была вынуждена экстренно покинуть планету из-за надвигающейся песчаной бури. Инженер и биолог Марк Уотни получил повреждение скафандра во время песчаной бури. Сотрудники миссии, посчитав его погибшим, эвакуировались с планеты, оставив Марка одного.
    Очнувшись, Уотни обнаруживает, что связь с Землёй отсутствует, но при этом полностью функционирует жилой модуль. Главный герой начинает искать способ продержаться на имеющихся запасах еды, витаминов, воды и воздуха ещё 4 года до прилёта следующей миссии "Арес-4".
    Release Date: 2015-09-11T08:00:00Z
    Genre: Sci-Fi & Fantasy
    Artist: Ridley Scott
    Name: The Martian

    MediaInfo

    General
    Complete name : /Users/imac/HandBrake/The.Martian.WEB-DL.1080p.m4v
    Format : MPEG-4
    Codec ID : M4V  (M4V /M4A /mp42/isom)
    File size : 5.55 GiB
    Duration : 2h 21mn
    Overall bit rate mode : Variable
    Overall bit rate : 5 607 Kbps
    Movie name : The Martian
    Performer : Ridley Scott
    Director : Ридли Скотт
    Actor : Мэтт Дэймон / Джессика Честейн / Чиветель Эджиофор / Кристен Уиг / Джефф Дэниелс / Майкл Пенья / Шон Бин / Кейт Мара / Себастьян Стэн / Аксель Хенни / Сергей Быстрицкий / Елена Харитонова / Сергей Чихачев / Дарья Фролова / Сергей Колесников
    Screenplay by : Дрю Годдард / Энди Уир
    Producer : Марк Хаффам / Саймон Кинберг / Майкл Шефер
    Production studio : 20th Century Fox
    Genre : Sci-Fi & Fantasy
    ContentType : Short Film
    Description : Марсианская миссия "Арес-3" в процессе работы была вынуждена экстренно покинуть планету из-за надвигающейся песчаной бури. Инженер и биолог Марк Уотни получил повреждение скафандра во время песчаной бури. Сотрудники миссии, посчитав его погибшим, эвакуировались с планеты, оставив Марка одного. Очнувшись, Уотни обнаруживает, что связь с Землёй отсутствует, но при этом полностью функционирует жилой модуль. Главный герой начинает искать способ продержаться на имеющихся запасах еды, витаминов, воды и воздуха ещё 4 года до прилёта следующей миссии "Арес-4".
    Recorded date : UTC 2015-09-11 08:00:00
    Encoded date : UTC 2015-12-28 15:29:06
    Tagged date : UTC 2015-12-28 15:34:10
    Copyright : © 2015 Twentieth Century Fox Film Corporation. All rights reserved.
    Cover : Yes
    Rating : None
    Title/Sort : Martian
    LongDescription : Марсианская миссия "Арес-3" в процессе работы была вынуждена экстренно покинуть планету из-за надвигающейся песчаной бури. Инженер и биолог Марк Уотни получил повреждение скафандра во время песчаной бури. Сотрудники миссии, посчитав его погибшим, эвакуировались с планеты, оставив Марка одного. / Очнувшись, Уотни обнаруживает, что связь с Землёй отсутствует, но при этом полностью функционирует жилой модуль. Главный герой начинает искать способ продержаться на имеющихся запасах еды, витаминов, воды и воздуха ещё 4 года до прилёта следующей миссии "Арес-4".
    AppleStoreCatalogID : 1039586890
    Vendor : Apple:vendor_id:2015-841700
    ContentRating : mpaa|PG-13|300|
    Video #1
    ID : 1
    Format : AVC
    Format/Info : Advanced Video Codec
    Format profile : High@L4
    Format settings, CABAC : Yes
    Format settings, ReFrames : 5 frames
    Codec ID : avc1
    Codec ID/Info : Advanced Video Coding
    Duration : 2h 21mn
    Bit rate : 4 358 Kbps
    Width : 1 916 pixels
    Height : 796 pixels
    Display aspect ratio : 2.40:1
    Frame rate : 23.976 fps
    Color space : YUV
    Chroma subsampling : 4:2:0
    Bit depth : 8 bits
    Scan type : Progressive
    Bits/(Pixel*Frame) : 0.119
    Stream size : 4.31 GiB (78%)
    Title : Main Program
    Language : English
    Encoded date : UTC 2015-12-28 15:29:06
    Tagged date : UTC 2015-12-28 15:30:54
    Color range : Limited
    Color primaries : BT.709
    Transfer characteristics : BT.709
    Matrix coefficients : BT.709
    Menus : 12,13
    Video #2
    ID : 13
    Format : JPEG
    Codec ID : jpeg
    Duration : 2h 21mn
    Bit rate mode : Variable
    Bit rate : 1 148 bps
    Width : 640 pixels
    Height : 265 pixels
    Display aspect ratio : 2.40:1
    Frame rate mode : Variable
    Frame rate : 0.004 fps
    Minimum frame rate : 0.002 fps
    Maximum frame rate : 0.008 fps
    Color space : YUV
    Chroma subsampling : 4:2:0
    Bit depth : 8 bits
    Compression mode : Lossy
    Bits/(Pixel*Frame) : 1.692
    Stream size : 1.10 MiB (0%)
    Title : Chapter Imagres
    Language : English
    Default : No
    Encoded date : UTC 2015-12-28 15:31:05
    Tagged date : UTC 2015-12-28 15:31:05
    Menu For : 1
    Audio #1
    ID : 2
    Format : AAC
    Format/Info : Advanced Audio Codec
    Format profile : LC
    Codec ID : 40
    Duration : 2h 21mn
    Bit rate mode : Variable
    Bit rate : 157 Kbps
    Maximum bit rate : 265 Kbps
    Channel(s) : 2 channels
    Channel positions : Front: L R
    Sampling rate : 48.0 KHz
    Frame rate : 46.875 fps (1024 spf)
    Compression mode : Lossy
    Stream size : 159 MiB (3%)
    Title : Russian Styereo
    Language : Russian
    Default : Yes
    Alternate group : 1
    Encoded date : UTC 2015-12-28 15:29:06
    Tagged date : UTC 2015-12-28 15:29:17
    Fallback From : 5
    Subtitles : 7,9
    Menus : 12
    Audio #2
    ID : 3
    Format : AAC
    Format/Info : Advanced Audio Codec
    Format profile : LC
    Codec ID : 40
    Duration : 2h 21mn
    Bit rate mode : Variable
    Bit rate : 157 Kbps
    Maximum bit rate : 267 Kbps
    Channel(s) : 2 channels
    Channel positions : Front: L R
    Sampling rate : 48.0 KHz
    Frame rate : 46.875 fps (1024 spf)
    Compression mode : Lossy
    Stream size : 159 MiB (3%)
    Title : English Stereo
    Language : English
    Default : No
    Alternate group : 1
    Encoded date : UTC 2015-12-28 15:29:06
    Tagged date : UTC 2015-12-28 15:29:17
    Fallback From : 6
    Audio #3
    ID : 4
    Format : AAC
    Format/Info : Advanced Audio Codec
    Format profile : LC
    Codec ID : 40
    Duration : 2h 21mn
    Bit rate mode : Variable
    Bit rate : 157 Kbps
    Maximum bit rate : 266 Kbps
    Channel(s) : 2 channels
    Channel positions : Front: L R
    Sampling rate : 44.1 KHz
    Frame rate : 43.066 fps (1024 spf)
    Compression mode : Lossy
    Stream size : 159 MiB (3%)
    Title : Ukrainian Stereo
    Language : Ukrainian
    Default : No
    Alternate group : 1
    Encoded date : UTC 2015-12-28 15:29:06
    Tagged date : UTC 2015-12-28 15:29:16
    Subtitles : 8,10
    Audio #4
    ID : 5
    Format : AC-3
    Format/Info : Audio Coding 3
    Mode extension : CM (complete main)
    Format settings, Endianness : Big
    Codec ID : ac-3
    Duration : 2h 21mn
    Bit rate mode : Constant
    Bit rate : 384 Kbps
    Channel(s) : 6 channels
    Channel positions : Front: L C R, Side: L R, LFE
    Sampling rate : 48.0 KHz
    Frame rate : 31.250 fps (1536 spf)
    Bit depth : 16 bits
    Compression mode : Lossy
    Stream size : 389 MiB (7%)
    Title : Russian DD 5.1
    Language : Russian
    Default : Inherited From: 2
    Alternate group : 1
    Encoded date : UTC 2015-12-28 15:29:06
    Tagged date : UTC 2015-12-28 15:29:14
    Fallback To : 2
    Subtitles : 7,9
    Audio #5
    ID : 6
    Format : AC-3
    Format/Info : Audio Coding 3
    Mode extension : CM (complete main)
    Format settings, Endianness : Big
    Codec ID : ac-3
    Duration : 2h 21mn
    Bit rate mode : Constant
    Bit rate : 384 Kbps
    Channel(s) : 6 channels
    Channel positions : Front: L C R, Side: L R, LFE
    Sampling rate : 48.0 KHz
    Frame rate : 31.250 fps (1536 spf)
    Bit depth : 16 bits
    Compression mode : Lossy
    Stream size : 389 MiB (7%)
    Title : English DD 5.1
    Language : English
    Default : No
    Alternate group : 1
    Encoded date : UTC 2015-12-28 15:29:06
    Tagged date : UTC 2015-12-28 15:29:14
    Fallback To : 3
    Text #1
    ID : 7
    Format : Timed Text
    Muxing mode : sbtl
    Codec ID : tx3g
    Duration : 2h 21mn
    Bit rate mode : Variable
    Bit rate : 3 bps
    Stream size : 3.39 KiB (0%)
    Title : Russian Forced
    Language : Russian
    Default : Yes
    Forced : Yes
    Alternate group : 2
    Encoded date : UTC 2015-12-28 15:29:06
    Tagged date : UTC 2015-12-28 15:30:54
    Subtitles For : 2,5
    Full Alternative : 9
    Text #2
    ID : 8
    Format : Timed Text
    Muxing mode : sbtl
    Codec ID : tx3g
    Duration : 2h 21mn
    Bit rate mode : Variable
    Bit rate : 3 bps
    Stream size : 2.59 KiB (0%)
    Title : Ukrainian Forced
    Language : Ukrainian
    Default : No
    Forced : Yes
    Alternate group : 2
    Encoded date : UTC 2015-12-28 15:29:06
    Tagged date : UTC 2015-12-28 15:30:54
    Subtitles For : 4
    Full Alternative : 10
    Text #3
    ID : 9
    Format : Timed Text
    Muxing mode : sbtl
    Codec ID : tx3g
    Duration : 2h 21mn
    Bit rate mode : Variable
    Bit rate : 108 bps
    Stream size : 111 KiB (0%)
    Title : Russian Full
    Language : Russian
    Default : No
    Forced : No
    Alternate group : 2
    Encoded date : UTC 2015-12-28 15:29:06
    Tagged date : UTC 2015-12-28 15:30:54
    Subtitles For : 2,5
    Forced Alternative : 7
    Text #4
    ID : 10
    Format : Timed Text
    Muxing mode : sbtl
    Codec ID : tx3g
    Duration : 2h 21mn
    Bit rate mode : Variable
    Bit rate : 110 bps
    Stream size : 114 KiB (0%)
    Title : Ukrainian Full
    Language : Ukrainian
    Default : No
    Forced : No
    Alternate group : 2
    Encoded date : UTC 2015-12-28 15:29:06
    Tagged date : UTC 2015-12-28 15:30:54
    Subtitles For : 4
    Forced Alternative : 8
    Text #5
    ID : 11
    Format : Timed Text
    Muxing mode : sbtl
    Codec ID : tx3g
    Duration : 2h 15mn
    Bit rate mode : Variable
    Bit rate : 76 bps
    Stream size : 75.4 KiB (0%)
    Title : English Full
    Language : English
    Default : No
    Forced : No
    Alternate group : 2
    Encoded date : UTC 2015-12-28 15:29:06
    Tagged date : UTC 2015-12-28 15:30:54
    Menu #1
    00:00:00.000 : 1
    00:03:21.000 : 2
    00:10:07.000 : 3
    00:15:22.000 : 4
    00:18:23.000 : 5
    00:21:32.000 : 6
    00:24:25.000 : 7
    00:28:49.000 : 8
    00:31:33.000 : 9
    00:34:18.000 : 10
    00:39:10.000 : 11
    00:41:18.000 : 12
    00:46:19.000 : 13
    00:49:21.000 : 14
    00:56:10.999 : 15
    00:59:35.000 : 16
    01:02:19.000 : 17
    01:06:48.000 : 18
    01:09:47.000 : 19
    01:13:45.000 : 20
    01:18:32.000 : 21
    01:22:46.000 : 22
    01:30:34.000 : 23
    01:37:23.000 : 24
    01:43:24.000 : 25
    01:46:08.000 : 26
    01:50:11.000 : 27
    01:54:00.000 : 28
    01:57:41.000 : 29
    02:04:33.000 : 30
    02:10:56.000 : 31
    02:13:19.000 : 32
    Menu #2
    ID : 12
    Codec ID : text
    Duration : 2h 21mn
    Language : English
    Encoded date : UTC 2015-12-28 15:30:55
    Tagged date : UTC 2015-12-28 15:30:55
    Menu For : 2,1
    00:00:00.000 : 1
    00:03:21.000 : 2
    00:10:07.000 : 3
    00:15:22.000 : 4
    00:18:23.000 : 5
    00:21:32.000 : 6
    00:24:25.000 : 7
    00:28:49.000 : 8
    00:31:33.000 : 9
    00:34:18.000 : 10
    00:39:10.000 : 11
    00:41:18.000 : 12
    00:46:19.000 : 13
    00:49:21.000 : 14
    00:56:10.999 : 15
    00:59:35.000 : 16
    01:02:19.000 : 17
    01:06:48.000 : 18
    01:09:47.000 : 19
    01:13:45.000 : 20
    01:18:32.000 : 21
    01:22:46.000 : 22
    01:30:34.000 : 23
    01:37:23.000 : 24
    01:43:24.000 : 25
    01:46:08.000 : 26
    01:50:11.000 : 27
    01:54:00.000 : 28
    01:57:41.000 : 29
    02:04:33.000 : 30
    02:10:56.000 : 31
    02:13:19.000 : 32
    Bit rate mode : VBR

    Скриншоты

    -

    Релиз подготовлен для просмотра на Apple TV, iPad, iPhone, iPod Touch.
    Для просмотра данного релиза на компьютере с ОС Windows рекомендуется использовать VLC media player
    Скачать .torrent

    Скачать торрент-файл бесплатно и на максимальной скорости!

    Как скачивать? · Что такое торрент? · Рейтинг и ограничения

    !ВНИМАНИЕ!
    Сайт не распространяет и не хранит электронные версии произведений, а занимается лишь лишь предоставлением доступа к создаваемому пользователями каталогу ссылок на торрент-файлы, которые содержат только списки хеш-сумм, убедительная просьба с жалобами обращаться напрямую к пользователю. Файлы для обмена на трекере предоставлены пользователями сайта, и администрация не несёт ответственности за их содержание. Просьба не заливать файлы, защищенные авторскими правами, а также файлы нелегального содержания!


    _________________
    [Профиль] [ЛС]
    Показать сообщения:    
    Ответить на тему

    Текущее время: Сегодня, в 23:20

    Часовой пояс: GMT + 2



    Вы не можете начинать темы
    Вы не можете отвечать на сообщения
    Вы не можете редактировать свои сообщения
    Вы не можете удалять свои сообщения
    Вы не можете голосовать в опросах
    Вы не можете прикреплять файлы к сообщениям
    Вы не можете скачивать файлы