BitTorrentTracker PerecTracker.org
BitTorrentTracker PerecTracker.org
    
Регистрация  ·  Вход
 
 · 
Забыли пароль?

  • Суженый-ряженый (Дмитрий Иосифов) [2007, комедия, мелодрама, DVDRip]

    Ответить на тему
     
    Автор Сообщение

    rechyn

    Создавать темы 28-Дек-2015 17:49

           

    [Цитировать]

    Суженый-ряженый
    Год выпуска: 2007
    Жанр: комедия, мелодрамма
    Продолжительность: 01:30:50.439 (136261 frames)
    Субтитры: нет
    Режиссер: Дмитрий Иосифов
    В ролях: Мария Порошина, Алексей Макаров, Инга Оболдина, Карэн Бадалов, Сергей Астахов, Ксения Раппопорт, Александр Феклистов, Сергей Мигицко, Михаил Евланов, Юрий Ицков, Сергей Бызгу, Сергей Козик, Вера Карпова, Галина Сабурова, Ольга Калмыкова, Татьяна Жукова-Киртбая, Максим Бритвенков, Сергей Николаев, Альберт Афонин
    Описание: Когда-то Ольге нагадали, что своего суженого она встретит под Новый год. Разочаровавшись в романе с Эдиком, который появился на пороге ее дома в новогоднюю ночь, она больше никому не верит, решительно меняет все в своей жизни - стиль, работу, квартиру. Пока Ольга избавляется от неприятных воспоминаний прошлого, ангелы не остаются без дела, они вершат судьбы своих подопечных. В очередной предновогодний вечер у Ольги на пороге появляется незваный и довольно настырный гость с далекого Севера. С этого момента (не без помощи ангелов) Новый год для Ольги и других героев фильма превращается в череду невероятных событий...
    Качество: DVDRip
    Формат: AVI
    Видео кодек: XviD
    Аудио кодек: АС3
    Видео: 720x384 (1.88:1), 25 fps, XviD build 73 ~1836 kbps avg, 0.27 bit/pixel
    Аудио: 48 kHz, AC3 Dolby Digital, 3/2 (L,C,R,l,r) + LFE ch, ~448.00 kbps avg

    Скриншоты

    Медиаинфо

    F:\004 Мои раздачи\Суженый ряженый 1,46\suzhenyi_ryazhenyi_1.46_[torrents.ru]_by_bm11.avi
    General
    Complete name : F:\004 Мои раздачи\Суженый ряженый 1,46\suzhenyi_ryazhenyi_1.46_[torrents.ru]_by_bm11.avi
    Format : AVI
    Format/Info : Audio Video Interleave
    File size : 1.46 GiB
    Duration : 1h 30mn
    Overall bit rate : 2 294 Kbps
    Director : bm11
    Writing application : VirtualDubMod 1.5.10.3 | www.virtualdub-fr.org || (build 2550/release)
    Video
    Format : MPEG-4 Visual
    Format profile : Streaming Video@L1
    Format settings, BVOP : Yes
    Format settings, QPel : No
    Format settings, GMC : No warppoints
    Format settings, Matrix : Custom
    Codec ID : XVID
    Codec ID/Hint : XviD
    Duration : 1h 30mn
    Bit rate : 1 837 Kbps
    Width : 720 pixels
    Height : 384 pixels
    Display aspect ratio : 1.875
    Frame rate : 25.000 fps
    Resolution : 24 bits
    Colorimetry : 4:2:0
    Scan type : Progressive
    Bits/(Pixel*Frame) : 0.266
    Stream size : 1.17 GiB (80%)
    Writing library : XviD 73
    Audio
    Format : AC-3
    Format/Info : Audio Coding 3
    Codec ID : 2000
    Duration : 1h 30mn
    Bit rate mode : Constant
    Bit rate : 448 Kbps
    Channel(s) : 6 channels
    Channel positions : Front: L C R, Surround: L R, LFE
    Sampling rate : 48.0 KHz
    Stream size : 291 MiB (20%)
    Alignment : Split accross interleaves
    Interleave, duration : 40 ms (1.00 video frame)
    Interleave, preload duration : 500 ms
    Скачать .torrent

    Скачать торрент-файл бесплатно и на максимальной скорости!

    Как скачивать? · Что такое торрент? · Рейтинг и ограничения

    !ВНИМАНИЕ!
    Сайт не распространяет и не хранит электронные версии произведений, а занимается лишь лишь предоставлением доступа к создаваемому пользователями каталогу ссылок на торрент-файлы, которые содержат только списки хеш-сумм, убедительная просьба с жалобами обращаться напрямую к пользователю. Файлы для обмена на трекере предоставлены пользователями сайта, и администрация не несёт ответственности за их содержание. Просьба не заливать файлы, защищенные авторскими правами, а также файлы нелегального содержания!


    _________________
    [Профиль] [ЛС]
    Показать сообщения:    
    Ответить на тему

    Текущее время: Сегодня, в 04:09

    Часовой пояс: GMT + 2



    Вы не можете начинать темы
    Вы не можете отвечать на сообщения
    Вы не можете редактировать свои сообщения
    Вы не можете удалять свои сообщения
    Вы не можете голосовать в опросах
    Вы не можете прикреплять файлы к сообщениям
    Вы не можете скачивать файлы