BitTorrentTracker PerecTracker.org
BitTorrentTracker PerecTracker.org
    
Регистрация  ·  Вход
 
 · 
Забыли пароль?

  • Рождественская свадебная сказка / A Christmas Wedding Tail (Майкл Фейфер / Michael Feifer) [2011, США, комедия, DVDRip] MVO (РенТВ) + Original Eng

    Ответить на тему
     
    Автор Сообщение

    rechyn

    Создавать темы 28-Дек-2015 17:23

           

    [Цитировать]

    Рождественская свадебная сказка / A Christmas Wedding Tail
    Страна: США
    Жанр: комедия
    Год выпуска: 2011
    Продолжительность: 01:27:58
    Перевод: Профессиональный (многоголосый закадровый) РенТВ
    Cубтитры: нет
    Оригинальная аудиодорожка: английский
    Режиссер: Майкл Фейфер / Michael Feifer
    В ролях: Джей Мор
    Дженни Гарт
    Никки Кокс
    Брэд Роу
    Том Арнольд
    Кэтрин Хикс
    Дэвид О’Доннелл
    Джон Колтон
    Майлз Эллиот
    Райли Стюарт
    Описание: История, в которой домашние любимцы-собаки сближают своих хозяев.
    Сэмпл: http://multi-up.com/1080135
    Качество видео: DVDRip
    Формат видео: AVI
    Видео: MPEG4, XviD, 720x400 (16:9), 23.976 fps, 1 773 Kbps (0.257 bit/pixel)
    Аудио: AC-3, 48.0 KHz, 1 ch, 128 Kbps, CBR - русский
    Аудио 2: AC-3, 48.0 KHz, 6 ch, 448 Kbps, CBR - английский

    MediaInfo

    Общее
    Полное имя : N:\МОИ РАЗДАЧИ\Рождественская свадебная сказка.avi
    Формат : AVI
    Формат/Информация : Audio Video Interleave
    Размер файла : 1,45 Гбайт
    Продолжительность : 1 ч. 27 м.
    Общий поток : 2364 Кбит/сек
    Название фильма : Рождественская свадебная сказка / A Christmas Wedding Tail (2011)
    Программа кодирования : VirtualDubMod 1.5.10.2 (build 2540/release)
    Библиотека кодирования : VirtualDubMod build 2540/release
    Видео
    Идентификатор : 0
    Формат : MPEG-4 Visual
    Профиль формата : Advanced Simple@L5
    Параметр BVOP формата : 2
    Параметр QPel формата : Нет
    Параметр GMC формата : Без точки перехода
    Параметр матрицы формата : Default (H.263)
    Идентификатор кодека : XVID
    Идентификатор кодека/Подсказка : XviD
    Продолжительность : 1 ч. 27 м.
    Битрейт : 1773 Кбит/сек
    Ширина : 720 пикселей
    Высота : 400 пикселей
    Соотношение сторон : 16:9
    Частота кадров : 23,976 (24000/1001) кадра/сек
    Цветовое пространство : YUV
    Субдискретизация насыщенности : 4:2:0
    Битовая глубина : 8 бит
    Тип развёртки : Прогрессивная
    Метод сжатия : С потерями
    Бит/(Пиксели*Кадры) : 0.257
    Размер потока : 1,09 Гбайт (75%)
    Библиотека кодирования : XviD 1.2.1 (UTC 2008-12-04)
    Аудио #1
    Идентификатор : 1
    Формат : AC-3
    Формат/Информация : Audio Coding 3
    Расширение режима : CM (complete main)
    Параметр Endianness формата : Big
    Идентификатор кодека : 2000
    Продолжительность : 1 ч. 27 м.
    Вид битрейта : Постоянный
    Битрейт : 128 Кбит/сек
    Каналы : 1 канал
    Расположение каналов : Front: C
    Частота : 48,0 КГц
    Частота кадров : 31,250 кадров/сек (1536 spf)
    Метод сжатия : С потерями
    Задержка видео : 500 мс.
    Размер потока : 80,5 Мбайт (5%)
    Выравнивание : Разделение по промежуткам
    Продолжительность промежутка : 42 мс. (1,00 видеокадр)
    Время предзагрузки промежутка : 500 мс.
    Заголовок : Профессиональный (многоголосый закадровый) РенТВ
    Аудио #2
    Идентификатор : 2
    Формат : AC-3
    Формат/Информация : Audio Coding 3
    Расширение режима : CM (complete main)
    Параметр Endianness формата : Big
    Идентификатор кодека : 2000
    Продолжительность : 1 ч. 27 м.
    Вид битрейта : Постоянный
    Битрейт : 448 Кбит/сек
    Каналы : 6 каналов
    Расположение каналов : Front: L C R, Side: L R, LFE
    Частота : 48,0 КГц
    Частота кадров : 31,250 кадров/сек (1536 spf)
    Метод сжатия : С потерями
    Задержка видео : 500 мс.
    Размер потока : 282 Мбайт (19%)
    Выравнивание : Разделение по промежуткам
    Продолжительность промежутка : 42 мс. (1,00 видеокадр)
    Время предзагрузки промежутка : 500 мс.
    Заголовок : Английский

    Скриншоты


    Скачать .torrent

    Скачать торрент-файл бесплатно и на максимальной скорости!

    Как скачивать? · Что такое торрент? · Рейтинг и ограничения

    !ВНИМАНИЕ!
    Сайт не распространяет и не хранит электронные версии произведений, а занимается лишь лишь предоставлением доступа к создаваемому пользователями каталогу ссылок на торрент-файлы, которые содержат только списки хеш-сумм, убедительная просьба с жалобами обращаться напрямую к пользователю. Файлы для обмена на трекере предоставлены пользователями сайта, и администрация не несёт ответственности за их содержание. Просьба не заливать файлы, защищенные авторскими правами, а также файлы нелегального содержания!


    _________________
    [Профиль] [ЛС]
    Показать сообщения:    
    Ответить на тему

    Текущее время: Сегодня, в 10:15

    Часовой пояс: GMT + 2



    Вы не можете начинать темы
    Вы не можете отвечать на сообщения
    Вы не можете редактировать свои сообщения
    Вы не можете удалять свои сообщения
    Вы не можете голосовать в опросах
    Вы не можете прикреплять файлы к сообщениям
    Вы не можете скачивать файлы