BitTorrentTracker PerecTracker.org
BitTorrentTracker PerecTracker.org
    
Регистрация  ·  Вход
 
 · 
Забыли пароль?

  • Ирония судьбы, или с легким паром (Эльдар Рязанов) [1975, комедия, музыкальный, DVDRip] КП реставрация

    Ответить на тему
     
    Автор Сообщение

    rechyn

    Создавать темы 28-Дек-2015 16:44

           

    [Цитировать]

    Ирония судьбы, или с легким паром (2 серии)
    Жанр: Комедия, Музыкальный
    Год выпуска: 1975
    Продолжительность: 03:04:12
    Режиссёр: Эльдар Рязанов
    Сценарий: Эльдар Рязанов, Эмиль Брагинский
    Композитор: Микаэл Таривердиев
    В ролях: Андрей Мягков, Барбара Брыльска, Юрий Яковлев, Ольга Науменко, Лия Ахеджакова, Валентина Талызина, Александр Ширвиндт, Георгий Бурков, Александр Белявский, Любовь Добржанская, Любовь Соколова, Готлиб Ронинсон
    Описание: Под Новый год приятели отправились в баню. Вымылись, выпили. Один из них должен был лететь после этого в Ленинград, но кто именно, они не помнили. В самолет запихнули в бессознательном состоянии Женю Лукашина, которого дожидалась невеста в московской квартире. Прилетев в Ленинград, Женя назвал таксисту свой адрес, вошел в дом, открыл дверь своим ключом и лег отсыпаться. В это время домой вернулась молодая хозяйка ленинградской квартиры, намереваясь встретить праздник вместе со своим женихом...
    Доп. информация: Исходник DVD9 "Крупный План" полная реставрация. Цветопередача и контраст в данном издании похуже, но зато нет шумов и "снега" в отличие от "Twister". Свои плюсы и свои минусы

    Формат видео: AVI
    Качество видео: DVDRip (DVD9)
    Видео кодек: XviD
    Аудио кодек: MP3
    Видео: XviD, 640х480, 25fps, 1008kbps
    Аудио: MPEG Layer 3, 48000Hz, 128kbps, stereo

    MediaInfo

    General
    Complete name : Ironia.Sudby.1.1975.O.DVDRip.1400.MediaClub.CurHaJI.avi
    Format : AVI
    Format/Info : Audio Video Interleave
    File size : 1.46 GiB
    Duration : 3h 4mn
    Overall bit rate : 1 136 Kbps
    Movie name : Ironia.Sudby.1.1975.O.DVDRip.1400.MediaClub.CurHaJI
    Writing application : Lavf53.13.0
    Writing library : VirtualDub build 35491/release
    Video
    ID : 0
    Format : MPEG-4 Visual
    Format profile : Advanced Simple@L5
    Format settings, BVOP : 1
    Format settings, QPel : No
    Format settings, GMC : No warppoints
    Format settings, Matrix : Default (MPEG)
    Codec ID : XVID
    Codec ID/Hint : XviD
    Duration : 3h 4mn
    Bit rate : 1 008 Kbps
    Width : 640 pixels
    Height : 480 pixels
    Display aspect ratio : 4:3
    Frame rate : 25.000 fps
    Color space : YUV
    Chroma subsampling : 4:2:0
    Bit depth : 8 bits
    Scan type : Progressive
    Compression mode : Lossy
    Bits/(Pixel*Frame) : 0.130
    Stream size : 1.28 GiB (88%)
    Writing library : XviD 1.2.1 (UTC 2008-12-04)
    Audio
    ID : 1
    Format : MPEG Audio
    Format version : Version 1
    Format profile : Layer 3
    Codec ID : 55
    Codec ID/Hint : MP3
    Duration : 3h 4mn
    Bit rate mode : Constant
    Bit rate : 128 Kbps
    Channel(s) : 2 channels
    Sampling rate : 48.0 KHz
    Compression mode : Lossy
    Stream size : 169 MiB (11%)
    Alignment : Split accross interleaves
    Interleave, duration : 40 ms (1.00 video frame)
    Interleave, preload duration : 500 ms
    Writing library : L3.99r
    Encoding settings : -m s -V 4 -q 2 -lowpass 17 -b 128

    Скриншоты

    Интересно

    * Роль Нади Шевелевой (Барбара Брыльска) дублировала Валентина Талызина
    * Песни исполняют: Алла Пугачёва (Надя Шевелева/Барбара Брыльска) и Сергей Никитин (Женя Лукашин/Андрей Мягков)
    Скачать .torrent

    Скачать торрент-файл бесплатно и на максимальной скорости!

    Как скачивать? · Что такое торрент? · Рейтинг и ограничения

    !ВНИМАНИЕ!
    Сайт не распространяет и не хранит электронные версии произведений, а занимается лишь лишь предоставлением доступа к создаваемому пользователями каталогу ссылок на торрент-файлы, которые содержат только списки хеш-сумм, убедительная просьба с жалобами обращаться напрямую к пользователю. Файлы для обмена на трекере предоставлены пользователями сайта, и администрация не несёт ответственности за их содержание. Просьба не заливать файлы, защищенные авторскими правами, а также файлы нелегального содержания!


    _________________
    [Профиль] [ЛС]
    Показать сообщения:    
    Ответить на тему

    Текущее время: Сегодня, в 20:19

    Часовой пояс: GMT + 2



    Вы не можете начинать темы
    Вы не можете отвечать на сообщения
    Вы не можете редактировать свои сообщения
    Вы не можете удалять свои сообщения
    Вы не можете голосовать в опросах
    Вы не можете прикреплять файлы к сообщениям
    Вы не можете скачивать файлы