BitTorrentTracker PerecTracker.org
BitTorrentTracker PerecTracker.org
    
Регистрация  ·  Вход
 
 · 
Забыли пароль?

  • Миллион на Рождество / Christmas in Wonderland (Джеймс Орр / James Orr) [2007, Канада, комедия, семейный, DVDRip] Dub + Original Eng

    Ответить на тему
     
    Автор Сообщение

    Columb

    Создавать темы 21-Авг-2013 11:32

           

    [Цитировать]

    Миллион на Рождество / Christmas in WonderlandСтрана: Канада, США
    Жанр: комедия, семейный
    Год выпуска: 2007
    Продолжительность: 01:34:45
    Перевод: Профессиональный (дублированный)
    Cубтитры: нет
    Оригинальная аудиодорожка: английский
    Режиссер: Джеймс Орр
    В ролях: Патрик Суэйзи, Кармен Электра, Мэттью Найт, Эми Шлагель, Зои Шлагель, Тим Карри, Крис Кэттэн, Престон Лэси, Камерон Брайт, Мэттью Уолкер
    Описание: Довольно-таки грустное вырисовывается Рождество для семейства Саундерс. Они только что переехали из Лос-Анджелеса в новый городишко, где у них нет ни друзей, ни денег, ни рождественского настроения. А тут еще их мама "застревает" в аэропорту из-за отложенного рейса и рождественский шопинг падает на плечи папы и детей... И вдруг 12-летний Брайан и 6-летняя Мэри находят сумку с миллионом долларов! Жизнь налаживается? Как бы не так! За ними начинают охотиться двое воришек, намеренных вернуть награбленные деньги. Они не остановятся ни перед чем в битком набитом покупателями магазине. Двое детей. Огромный магазин. И миллион в кармане. Что может пойти не так?
    Сэмпл: http://multi-up.com/895594
    Качество видео: DVDRip
    Формат видео: AVI
    Видео: XVID, 720x320, AR 2.25:1, 25.00fps, 1748kbps
    Аудио #1: AC3, 48000Hz, 448kbps, 6ch, DUB
    Аудио #2: AC3, 48000Hz, 448kbps, 6ch, ENG || Отдельно

    MediaInfo

    General
    Complete name : E:\Films\Миллион на Рождество\[2007] Christmas in Wonderland.avi
    Format : AVI
    Format/Info : Audio Video Interleave
    File size : 1.46 GiB
    Duration : 1h 34mn
    Overall bit rate : 2 204 Kbps
    Writing application : VirtualDubMod 1.5.4.1 (build 2178/release)
    Writing library : VirtualDubMod build 2178/release
    Video
    ID : 0
    Format : MPEG-4 Visual
    Format profile : Advanced Simple@L5
    Format settings, BVOP : 1
    Format settings, QPel : No
    Format settings, GMC : No warppoints
    Format settings, Matrix : Custom
    Codec ID : XVID
    Codec ID/Hint : XviD
    Duration : 1h 34mn
    Bit rate : 1 749 Kbps
    Width : 720 pixels
    Height : 320 pixels
    Display aspect ratio : 2.25:1
    Frame rate : 25.000 fps
    Color space : YUV
    Chroma subsampling : 4:2:0
    Bit depth : 8 bits
    Scan type : Progressive
    Compression mode : Lossy
    Bits/(Pixel*Frame) : 0.304
    Stream size : 1.16 GiB (79%)
    Writing library : XviD 64
    Audio
    ID : 1
    Format : AC-3
    Format/Info : Audio Coding 3
    Mode extension : CM (complete main)
    Codec ID : 2000
    Duration : 1h 34mn
    Bit rate mode : Constant
    Bit rate : 448 Kbps
    Channel(s) : 6 channels
    Channel positions : Front: L C R, Side: L R, LFE
    Sampling rate : 48.0 KHz
    Bit depth : 16 bits
    Compression mode : Lossy
    Stream size : 304 MiB (20%)
    Alignment : Split accross interleaves
    Interleave, duration : 96 ms (2.40 video frames)
    Interleave, preload duration : 96 ms
    Language : Russian

    Скриншоты

    Скачать .torrent

    Скачать торрент-файл бесплатно и на максимальной скорости!

    Как скачивать? · Что такое торрент? · Рейтинг и ограничения

    !ВНИМАНИЕ!
    Сайт не распространяет и не хранит электронные версии произведений, а занимается лишь лишь предоставлением доступа к создаваемому пользователями каталогу ссылок на торрент-файлы, которые содержат только списки хеш-сумм, убедительная просьба с жалобами обращаться напрямую к пользователю. Файлы для обмена на трекере предоставлены пользователями сайта, и администрация не несёт ответственности за их содержание. Просьба не заливать файлы, защищенные авторскими правами, а также файлы нелегального содержания!

    [Профиль] [ЛС]

    -746

    Создавать темы 28-Дек-2013 22:48 (спустя 4 месяца 7 дней)

           

    Топик был перенесен из форума Фильмы 2006-2010 в форум Новогодние релизы - Фильмы, Мультфильмы

    -sasha2006 

    _________________
    Как бы ты высоко не летал, не забывай, с кем ты ползал..
     
    Показать сообщения:    
    Ответить на тему

    Текущее время: Сегодня, в 15:57

    Часовой пояс: GMT + 2



    Вы не можете начинать темы
    Вы не можете отвечать на сообщения
    Вы не можете редактировать свои сообщения
    Вы не можете удалять свои сообщения
    Вы не можете голосовать в опросах
    Вы не можете прикреплять файлы к сообщениям
    Вы не можете скачивать файлы