BitTorrentTracker PerecTracker.org
BitTorrentTracker PerecTracker.org
    
Регистрация  ·  Вход
 
 · 
Забыли пароль?

  • Убойный молот / Наш иудейский молот / Хаммер / The Hebrew Hammer (Джонатан Кесселман / Jonathan Kesselman) [2003, США, Комедия, DVDRip] MVO (EA)

    Ответить на тему
     
    Автор Сообщение

    rechyn

    Создавать темы 28-Дек-2015 16:38

           

    [Цитировать]

    Убойный молот / Наш иудейский молот / Хаммер / The Hebrew Hammer«Новый супер-пупер-герой планеты!»Страна: США
    Жанр: Комедия
    Год выпуска: 2003
    Продолжительность: 01:21:31
    Перевод: Профессиональный (многоголосый закадровый) EA
    Cубтитры: нет
    Режиссер: Джонатан Кесселман / Jonathan Kesselman
    В ролях: Адам Голдберг /Adam Goldberg/, Джуди Грир /Judy Greer/, Энди Дик /Andy Dick/, Марио Ван Пиблз /Mario Van Peebles/, Питер Койот /Peter Coyote/, Нора Данн /Nora Dunn/, Шон Уэйлен /Sean Whalen/,
    Тони Кокс /Tony Cox/, Ричард Рихль /Richard Riehle/, Мелвин Ван Пиблз /Melvin Van Peebles/
    Описание: Отвязная комедия в стиле "Остина Пауэрса"!
    Злой сын Санта Клауса Дэмиан вместе со своим подручным оленем Блитценом захватывает власть на Северном полюсе. Он мечтает искоренить еврейский зимний праздник Хануку. Узнав об этом, супергерой Мордехай Джефферсон Карвер (Адам Голдберг - "Море Солтона") в компании знойной и смертоносной Эстер (Джуди Грир - "Свадебный переполох"), дочери Вождя ЛЕСа (Лиги Еврейской Справедливости) Блуменбергенштайненталя (Питер Койот - "Горькая луна"), и Лидера ФАКа (Фронта Асвабаждения Кванзы*) Мохаммеда Али Полы Абдул Рахима (Марио ван Пиблз - "Горец 3") отправляется на Северный полюс разбираться с Дэмианом Клаусом.
    Сэмпл: https://yadi.sk/i/KlBhN5XlmU9jH
    Качество видео: DVDRip
    Формат видео: AVI
    Видео: 720x384 (1.88:1), 25 fps, DivX Codec 6.7 ~2072 kbps avg, 0.30 bit/pixel
    Аудио: 48 kHz, AC3 Dolby Digital, 2/0 (L,R) ch, ~192 kbps

    MediaInfo

    Убойный молот (Наш иудейский молот, Хаммер) - The Hebrew Hammer.avi
    Format : AVI
    Format/Info : Audio Video Interleave
    File size : 1.33 GiB
    Duration : 1h 21mn
    Overall bit rate : 2 338 Kbps
    Movie name : Убойный молот (Наш иудейский молот, Хаммер) - The Hebrew Hammer
    Director : by Edich2
    Writing application : VirtualDubMod 1.5.10.2 (build 2540/release)
    Comment : RuTracker.org
    Video
    ID : 0
    Format : MPEG-4 Visual
    Format settings, BVOP : No
    Format settings, QPel : No
    Format settings, GMC : No warppoints
    Format settings, Matrix : Default (H.263)
    Codec ID : DX50
    Codec ID/Hint : DivX 5
    Duration : 1h 21mn
    Bit rate : 2 072 Kbps
    Width : 720 pixels
    Height : 384 pixels
    Display aspect ratio : 1.85:1
    Frame rate : 25.000 fps
    Color space : YUV
    Chroma subsampling : 4:2:0
    Bit depth : 8 bits
    Scan type : Progressive
    Compression mode : Lossy
    Bits/(Pixel*Frame) : 0.300
    Stream size : 1.18 GiB (89%)
    Writing library : DivX 6.7.0 (UTC 2007-09-20)
    Audio
    ID : 1
    Format : AC-3
    Format/Info : Audio Coding 3
    Mode extension : CM (complete main)
    Format settings, Endianness : Big
    Codec ID : 2000
    Duration : 1h 21mn
    Bit rate mode : Constant
    Bit rate : 256 Kbps
    Channel(s) : 2 channels
    Channel positions : Front: L R
    Sampling rate : 48.0 KHz
    Bit depth : 16 bits
    Compression mode : Lossy
    Stream size : 149 MiB (11%)
    Alignment : Split accross interleaves
    Interleave, duration : 40 ms (1.00 video frame)
    Interleave, preload duration : 500 ms

    Скриншоты



    Скачать .torrent

    Скачать торрент-файл бесплатно и на максимальной скорости!

    Как скачивать? · Что такое торрент? · Рейтинг и ограничения

    !ВНИМАНИЕ!
    Сайт не распространяет и не хранит электронные версии произведений, а занимается лишь лишь предоставлением доступа к создаваемому пользователями каталогу ссылок на торрент-файлы, которые содержат только списки хеш-сумм, убедительная просьба с жалобами обращаться напрямую к пользователю. Файлы для обмена на трекере предоставлены пользователями сайта, и администрация не несёт ответственности за их содержание. Просьба не заливать файлы, защищенные авторскими правами, а также файлы нелегального содержания!


    _________________
    [Профиль] [ЛС]
    Показать сообщения:    
    Ответить на тему

    Текущее время: Сегодня, в 14:30

    Часовой пояс: GMT + 2



    Вы не можете начинать темы
    Вы не можете отвечать на сообщения
    Вы не можете редактировать свои сообщения
    Вы не можете удалять свои сообщения
    Вы не можете голосовать в опросах
    Вы не можете прикреплять файлы к сообщениям
    Вы не можете скачивать файлы