BitTorrentTracker PerecTracker.org
BitTorrentTracker PerecTracker.org
    
Регистрация  ·  Вход
 
 · 
Забыли пароль?

  • Улетное Рождество / Noche de reyes / Twelfth Night (Мигель Бардем / Miguel Bardem) [2001, Испания, Комедия, VHSRip] MVO (EA)

    Ответить на тему
     
    Автор Сообщение

    rechyn

    Создавать темы 28-Дек-2015 16:32

           

    [Цитировать]

    Улетное Рождество / Noche de reyes / Twelfth Night
    Страна: Испания
    Жанр: Комедия
    Год выпуска: 2001
    Продолжительность: 01:39:44
    Перевод: Профессиональный (многоголосый закадровый) EA
    Cубтитры: нет
    Режиссер: Мигель Бардем \ Miguel Bardem
    В ролях: Хоакин Климент \ Joaquín Climent, Эльза Патаки \ Elsa Pataky, Луна МакГилл \ Luna McGill, Феле Мартинес \ Fele Martínez, Мелани Оливарес \ Melanie Olivares, Коте Солер \ Cote Soler, Эктор Альтерио \ Héctor Alterio, Того Игава \ Togo Igawa, Клаудия Грави \ Claudia Gravy, Мария Алварез \ María Álvarez
    Описание: Семья Куспинеда собиралась встретить Рождество в отличном расположении духа: предстояло подписать контракт, который разом решил бы их многочисленные финансовые проблемы. Но вместо этого всех Куспинедо без исключения поджидало совершенно безумное приключение. Глава семьи Эрнесто вовлек жену и детей в дикую неистовую гонку со временем, по ходу которой их преследует целая толпа придурковатых Санта Клаусов, троица нечистых на руку магов, заезжие японцы-туристы и прочие совсем уж нерождественские чудаки. Да, такую ночку будет невозможно забыть!
    Доп. информация: Оцифровка лицензионной VHS (личный архив) и получение VHSRip alenavova
    Сэмпл: https://yadi.sk/i/rotne1bHmTgYM
    Качество видео: VHSRip
    Формат видео: AVI
    Видео: 704x512 (1.38:1), 25 fps, XviD build 73 ~1761 kbps avg, 0.20 bit/pixel
    Аудио: 48 kHz, AC3 Dolby Digital, 2/0 (L,R) ch, ~192 kbps

    MediaInfo

    Улетное Рождество - Twelfth Night (by alenavova).avi
    Format : AVI
    Format/Info : Audio Video Interleave
    File size : 1.37 GiB
    Duration : 1h 39mn
    Overall bit rate : 1 963 Kbps
    Movie name : Улетное Рождество - Twelfth Night (by alenavova)
    Director : by alenavova
    Writing application : VirtualDubMod 1.5.10.3 | www.virtualdub-fr.org || (build 2550/release)
    Copyright : Edich2
    Comment : RuTracker.org
    Video
    ID : 0
    Format : MPEG-4 Visual
    Format profile : Advanced Simple@L5
    Format settings, BVOP : 1
    Format settings, QPel : No
    Format settings, GMC : No warppoints
    Format settings, Matrix : Custom
    Codec ID : XVID
    Codec ID/Hint : XviD
    Duration : 1h 39mn
    Bit rate : 1 761 Kbps
    Width : 704 pixels
    Height : 512 pixels
    Display aspect ratio : 1.375
    Frame rate : 25.000 fps
    Color space : YUV
    Chroma subsampling : 4:2:0
    Bit depth : 8 bits
    Scan type : Progressive
    Compression mode : Lossy
    Bits/(Pixel*Frame) : 0.195
    Stream size : 1.23 GiB (90%)
    Writing library : XviD 73
    Audio
    ID : 1
    Format : AC-3
    Format/Info : Audio Coding 3
    Mode extension : CM (complete main)
    Format settings, Endianness : Big
    Codec ID : 2000
    Duration : 1h 39mn
    Bit rate mode : Constant
    Bit rate : 192 Kbps
    Channel(s) : 2 channels
    Channel positions : Front: L R
    Sampling rate : 48.0 KHz
    Bit depth : 16 bits
    Compression mode : Lossy
    Stream size : 137 MiB (10%)
    Alignment : Split accross interleaves
    Interleave, duration : 40 ms (1.00 video frame)
    Interleave, preload duration : 500 ms

    Скриншоты


    Скачать .torrent

    Скачать торрент-файл бесплатно и на максимальной скорости!

    Как скачивать? · Что такое торрент? · Рейтинг и ограничения

    !ВНИМАНИЕ!
    Сайт не распространяет и не хранит электронные версии произведений, а занимается лишь лишь предоставлением доступа к создаваемому пользователями каталогу ссылок на торрент-файлы, которые содержат только списки хеш-сумм, убедительная просьба с жалобами обращаться напрямую к пользователю. Файлы для обмена на трекере предоставлены пользователями сайта, и администрация не несёт ответственности за их содержание. Просьба не заливать файлы, защищенные авторскими правами, а также файлы нелегального содержания!


    _________________
    [Профиль] [ЛС]
    Показать сообщения:    
    Ответить на тему

    Текущее время: Сегодня, в 20:38

    Часовой пояс: GMT + 2



    Вы не можете начинать темы
    Вы не можете отвечать на сообщения
    Вы не можете редактировать свои сообщения
    Вы не можете удалять свои сообщения
    Вы не можете голосовать в опросах
    Вы не можете прикреплять файлы к сообщениям
    Вы не можете скачивать файлы