BitTorrentTracker PerecTracker.org
BitTorrentTracker PerecTracker.org
    
Регистрация  ·  Вход
 
 · 
Забыли пароль?

  • Эльф / Elf (Джон Фавро / Jon Favreau) [2003, США, Германия, фэнтези, комедия, семейный, VHSRip] [FullScreen] Dub (Премьер)

    Ответить на тему
     
    Автор Сообщение

    rechyn

    Создавать темы 28-Дек-2015 16:28

           

    [Цитировать]

    Эльф / Elf«This holiday, discover your inner elf»[FullScreen]
    Страна: США, Германия
    Жанр: фэнтези, комедия, семейный
    Год выпуска: 2003
    Продолжительность: 01:32:54
    Перевод: Профессиональный (дублированный) Премьер
    Cубтитры: нет
    Режиссер: Джон Фавро / Jon Favreau
    В ролях: Уилл Феррелл, Джеймс Каан, Боб Ньюхарт, Эдвард Эснер, Мэри Стинберген, Зои Дешанель, Дэниэл Тэй, Фэйзон Лав, Питер Динклэйдж, Эми Седарис...
    Описание: Однажды в канун Рождества маленький мальчик спрятался у Санта-Клауса в мешке с подарками. Так Бадди и (Уилл Феррелл) попал на Северный полюс, где его вырастил приемный папа-эльф (Боб Ньюхарт). Когда наш "сын полка" стал старше, стало ясно, что крупные габариты здоровяка Бадди неважно контрастируют с крошечными эльфами. И тогда наш герой решает отправиться туда, где ему самое место - к большим людям, в город Нью-Йорк: там Бадди и планирует найти своего настоящего отца!
    В Большом Яблоке наивного эльфа-переростка поджидает масса приключений, включая встречу с отцом (Джеймс Каан) и очаровательной девушкой-эльфом из универмага (Зуи Дешанел), которая поможет Бадди вернуть Рождеству его истинный дух!
    Это комедия-блокбастер от режиссера Джона Фавро стала супер-хитом в США и окончательно укрепила статус Уилла Феррелла, как комика-суперзвезды!
    Доп. информация: Оцифровка лицензионной VHS (личный архив) и получение VHSRip alenavova
    Сэмпл: https://yadi.sk/i/nbopNPXEmTZfm
    Качество видео: VHSRip
    Формат видео: AVI
    Видео: 704x528 (1.33:1), 25 fps, XviD build 73 ~1904 kbps avg, 0.20 bit/pixel
    Аудио: 48 kHz, AC3 Dolby Digital, 2/0 (L,R) ch, ~192 kbps

    MediaInfo

    Эльф - Elf [by alenavova].avi
    Format : AVI
    Format/Info : Audio Video Interleave
    File size : 1.37 GiB
    Duration : 1h 32mn
    Overall bit rate : 2 106 Kbps
    Movie name : Эльф - Elf [by alenavova]
    Director : by alenavova
    Writing application : VirtualDubMod 1.5.10.3 | www.virtualdub-fr.org || (build 2550/release)
    Copyright : Edich2
    Comment : RuTracker.org
    Video
    ID : 0
    Format : MPEG-4 Visual
    Format profile : Advanced Simple@L5
    Format settings, BVOP : 1
    Format settings, QPel : No
    Format settings, GMC : No warppoints
    Format settings, Matrix : Custom
    Codec ID : XVID
    Codec ID/Hint : XviD
    Duration : 1h 32mn
    Bit rate : 1 904 Kbps
    Width : 704 pixels
    Height : 528 pixels
    Display aspect ratio : 4:3
    Frame rate : 25.000 fps
    Color space : YUV
    Chroma subsampling : 4:2:0
    Bit depth : 8 bits
    Scan type : Progressive
    Compression mode : Lossy
    Bits/(Pixel*Frame) : 0.205
    Stream size : 1.24 GiB (90%)
    Writing library : XviD 73
    Audio
    ID : 1
    Format : AC-3
    Format/Info : Audio Coding 3
    Mode extension : CM (complete main)
    Format settings, Endianness : Big
    Codec ID : 2000
    Duration : 1h 32mn
    Bit rate mode : Constant
    Bit rate : 192 Kbps
    Channel(s) : 2 channels
    Channel positions : Front: L R
    Sampling rate : 48.0 KHz
    Bit depth : 16 bits
    Compression mode : Lossy
    Stream size : 128 MiB (9%)
    Alignment : Split accross interleaves
    Interleave, duration : 40 ms (1.00 video frame)
    Interleave, preload duration : 500 ms

    Скриншоты


    Скачать .torrent

    Скачать торрент-файл бесплатно и на максимальной скорости!

    Как скачивать? · Что такое торрент? · Рейтинг и ограничения

    !ВНИМАНИЕ!
    Сайт не распространяет и не хранит электронные версии произведений, а занимается лишь лишь предоставлением доступа к создаваемому пользователями каталогу ссылок на торрент-файлы, которые содержат только списки хеш-сумм, убедительная просьба с жалобами обращаться напрямую к пользователю. Файлы для обмена на трекере предоставлены пользователями сайта, и администрация не несёт ответственности за их содержание. Просьба не заливать файлы, защищенные авторскими правами, а также файлы нелегального содержания!


    _________________
    [Профиль] [ЛС]
    Показать сообщения:    
    Ответить на тему

    Текущее время: Сегодня, в 16:25

    Часовой пояс: GMT + 2



    Вы не можете начинать темы
    Вы не можете отвечать на сообщения
    Вы не можете редактировать свои сообщения
    Вы не можете удалять свои сообщения
    Вы не можете голосовать в опросах
    Вы не можете прикреплять файлы к сообщениям
    Вы не можете скачивать файлы