Register  ·  Log in
Forgot password?

  • Красивая и безумная / Beautiful & Twisted (Кристофер Залла / Christopher Zalla) [2015, США, триллер, драма, криминал, WEB-DLRip] MVO

    Reply to topic
    Author Message


    Post 28-Dec-2015 14:01



    Красивая и безумная / Beautiful & Twisted-Страна: США
    Студия: PeaceOut Productions, Silver Screen Pictures, Sony Pictures Television
    Жанр: триллер, драма, криминал
    Год выпуска: 2015
    Продолжительность: 01:26:14
    Перевод: Профессиональный (многоголосый закадровый)
    Cубтитры: нет
    Оригинальная аудиодорожка: нет
    Режиссер: Кристофер Залла / Christopher Zalla
    В ролях: Роб Лоу, Пас Вега, Кэндис Берген, Сейшелл Гэбриел, Джуд Чикколелла, Мишель Херд, Уолтер ФонтЛеРой, Сони Николь Брингас, Захари Рифкин, Остин Уэйкфилд
    Описание: В июле 2009 года Бен Новак, унаследовавший сеть отелей Fontainebleau, был жестоко убит в номере отеля в пригороде Нью-Йорка. Своими ужасающими садистскими деталями страшное убийство вызвало мгновенный интерес средств массовой информации. Говорили, что зверское убийство было спланировано женщиной, пытавшейся уничтожить своего мужа и завладеть его состоянием.

    Тип релиза: WEB-DLRip [Neon_project]
    Контейнер: AVI
    Видео: 656x368 (1.78:1), 23.976 fps, XviD build 50 ~1009 kbps avg, 0.17 bit/pixel
    Аудио: 48 kHz, AC3 Dolby Digital, 2/0 (L,R) ch, ~192 kbps

    возраст: зрителям, достигшим 18 лет


    \Beautiful.&.Twisted.2015.WEB-DLRip.avi General Complete name : \Beautiful.&.Twisted.2015.WEB-DLRip.avi Format : AVI Format/Info : Audio Video Interleave File size : 747 MiB Duration : 1h 26mn Overall bit rate : 1 210 Kbps Writing application : VirtualDubMod (build 2540/release) Writing library : VirtualDubMod build 2540/release Video #0 ID : 0 Format : MPEG-4 Visual Format profile : Advanced Simple@L5 Format settings, BVOP : 1 Format settings, QPel : No Format settings, GMC : No warppoints Format settings, Matrix : Custom Codec ID : XVID Codec ID/Hint : XviD Duration : 1h 26mn Bit rate : 1 009 Kbps Width : 656 pixels Height : 368 pixels Display aspect ratio : 16:9 Frame rate : 23.976 fps Color space : YUV Chroma subsampling : 4:2:0 Bit depth : 8 bits Scan type : Progressive Compression mode : Lossy Bits/(Pixel*Frame) : 0.174 Stream size : 622 MiB (83%) Writing library : XviD 1.2.1 (UTC 2008-12-04) Audio #1 ID : 1 Format : AC-3 Format/Info : Audio Coding 3 Mode extension : CM (complete main) Format settings, Endianness : Big Codec ID : 2000 Duration : 1h 26mn Bit rate mode : Constant Bit rate : 192 Kbps Channel(s) : 2 channels Channel positions : Front: L R Sampling rate : 48.0 KHz Bit depth : 16 bits Compression mode : Lossy Stream size : 118 MiB (16%) Alignment : Split accross interleaves Interleave, duration : 42 ms (1.00 video frame) Interleave, preload duration : 500 ms

    Скриншот c названием фильма


    Download .torrent

    Download free and at maximum speed!

    How to Download? · What is a torrent? · Ratings and Limitations

    The site does not extend and does not store electronic(digital) versions of products, and only gives access to a reference catalogue created by users on torrent-files which contain only lists of the hash-sums, the earnest entreaty, with complaints(abuse) to access directly to the user. Files for an exchange on tracker are given by users of a site, and the administration does not bear the responsibility for their maintenance. The request to not fill in the files protected by copyrights, and also files of the illegal maintenance!

    [Profile] [PM]
    Display posts from previous:    
    Reply to topic

    The time now is: Today 01:58

    All times are GMT + 3 Hours

    You cannot post new topics in this forum
    You cannot reply to topics in this forum
    You cannot edit your posts in this forum
    You cannot delete your posts in this forum
    You cannot vote in polls in this forum
    You cannot attach files in this forum
    You cannot download files in this forum