BitTorrentTracker PerecTracker.org
BitTorrentTracker PerecTracker.org
    
Регистрация  ·  Вход
 
 · 
Забыли пароль?

  • Дархэмские быки / Bull Durham (Рон Шелтон / Ron Shelton) [1988, США, мелодрама, комедия, спорт, BDRip-AVC] DVO (HТВ+) + AVO (Ю. Сербин) + Sub (Eng)

    Ответить на тему
     
    Автор Сообщение

    Columb

    Создавать темы 21-Авг-2013 11:26

           

    [Цитировать]

    Дархэмские быки / Bull Durham«A Major League Love Story in a Minor League Town»-Страна: США | The Mount Company
    Жанр: мелодрама, комедия, спорт
    Год выпуска: 1988
    Продолжительность: 01:48:01-Перевод: Профессиональный (двухголосый закадровый) HТВ+
    + Авторский (одноголосый закадровый) Ю. Сербин
    + Оригинал [English]
    Cубтитры: английские, английские [SDH]-Режиссер: Рон Шелтон / Ron Shelton
    В ролях: Кевин Костнер (Crash Davis), Сьюзен Сарандон (Annie Savoy), Тим Роббинс (Ebby Calvin «Nuke» LaLoosh), Трей Уилсон (Skip), Роберт Вул (Larry), Уильям О’Лири (Jimmy), Дэвид Найдорф (Bobby), Дэнни Гэнс (Deke), Том Силарди (Tony), Ллойд Т. Уильямс (Mickey), Рик Марзан (Jose), Джордж Бак (Nuke's Father)--Описание: Тренер бейсбольной команды «Дархемские Быки» приглашает Крэша Дэйвиса, опытного игрока, на роль наставника для молодого, но талантливого Эбби, которому не хватает практики, чтобы стать настоящей звездой. Фанатка команды, имеющая привычку крутить романы с игроками, пытается «зацепить» и Дэйвиса, но тот оказывается неприступным.
    Но это не останавливает Энни, и она укладывает в постель подопечного Крэша. В результате получается классический любовный треугольник со всеми вытекающими последствиями и интригами. Прекрасное трио популярных актеров порадует зрителей своей игрой в этой романтической комедии.-Качество видео: BDRip-AVC | исх. Bull Durham (1988) 1080p BD-Remux | Сэмпл
    Формат видео: MKV-Видео: 788x426 (1.85:1), 23.976 fps, AVC ~1 546 kbps avg, 0.192 bit/pixel
    Аудио 1: 48 kHz, AC-3, 2 channels, ~192 kbps | Профессиональный (двухголосый закадровый) HТВ+
    Аудио 2: 48 kHz, AC-3, 2 channels, ~192 kbps | Авторский (одноголосый закадровый) Ю. Сербин
    Аудио 3: 48 kHz, AC-3, 6 channels, ~448 kbps | Оригинал [English] | отдельно Яндекс диск-Формат субтитров: softsub (SRT)
    Главы: есть-

    x264 log

    x264 [info]: frame I:1018  Avg QP:18.10  size: 58886
    x264 [info]: frame P:30109 Avg QP:21.20  size: 18126
    x264 [info]: frame B:124264 Avg QP:23.88  size:  5201
    x264 [info]: consecutive B-frames:  1.2%  1.5%  4.7% 17.5% 17.1% 36.7%  8.9%  5.6%  2.9%  1.5%  0.8%  0.9%  0.3%  0.3%  0.2%
    x264 [info]: mb I  I16..4:  3.2% 76.5% 20.3%
    x264 [info]: mb P  I16..4:  0.2%  5.6%  1.4%  P16..4: 32.7% 38.8% 15.5%  2.0%  0.2%    skip: 3.5%
    x264 [info]: mb B  I16..4:  0.0%  0.5%  0.1%  B16..8: 38.4% 20.2%  3.3%  direct: 4.7%  skip:32.6%  L0:43.5% L1:44.3% BI:12.2%
    x264 [info]: 8x8 transform intra:76.6% inter:62.6%
    x264 [info]: direct mvs  spatial:98.2% temporal:1.8%
    x264 [info]: coded y,uvDC,uvAC intra: 93.4% 92.6% 71.8% inter: 26.2% 22.9% 3.5%
    x264 [info]: i16 v,h,dc,p: 17% 42%  5% 36%
    x264 [info]: i8 v,h,dc,ddl,ddr,vr,hd,vl,hu:  9% 11%  4% 10% 15% 14% 13% 12% 12%
    x264 [info]: i4 v,h,dc,ddl,ddr,vr,hd,vl,hu: 10% 19%  3%  7% 13% 14% 12% 10% 11%
    x264 [info]: i8c dc,h,v,p: 40% 24% 19% 17%
    x264 [info]: Weighted P-Frames: Y:13.0% UV:1.7%
    x264 [info]: ref P L0: 39.4% 12.9% 17.2%  6.1%  5.6%  3.8%  3.8%  1.8%  1.8%  1.4%  1.4%  1.1%  1.2%  0.9%  1.0%  0.7%
    x264 [info]: ref B L0: 71.5% 11.7%  5.3%  2.8%  2.0%  1.7%  1.3%  0.8%  0.6%  0.6%  0.5%  0.5%  0.4%  0.2%  0.1%
    x264 [info]: ref B L1: 92.8%  7.2%
    x264 [info]: kb/s:1545.45
    x264 [total]: encoded 155391 frames, 17.75 fps, 1545.45 kb/s

    MediaInfo

    General
    Unique ID                                : 188852778808132665047821163097354952512 (0x8E13B8E0B4949F21BFA88F294D7C5F40)
    Complete name                            : D:\Фильмы\Рипы\Bull.Durham.1988.BDRip-AVC.Fredd Kruger.mkv
    Format                                   : Matroska
    Format version                           : Version 2
    File size                                : 1.46 GiB
    Duration                                 : 1h 48mn
    Overall bit rate                         : 1 932 Kbps
    Encoded date                             : UTC 2013-08-20 13:18:12
    Writing application                      : mkvmerge v5.0.1 ('Es ist Sommer') built on Nov  6 2011 16:23:40
    Writing library                          : libebml v1.2.2 + libmatroska v1.3.0
    Video
    ID                                       : 1
    Format                                   : AVC
    Format/Info                              : Advanced Video Codec
    Format profile                           : High@L4.1
    Format settings, CABAC                   : Yes
    Format settings, ReFrames                : 16 frames
    Codec ID                                 : V_MPEG4/ISO/AVC
    Duration                                 : 1h 48mn
    Bit rate                                 : 1 546 Kbps
    Width                                    : 788 pixels
    Height                                   : 426 pixels
    Display aspect ratio                     : 1.85:1
    Frame rate mode                          : Constant
    Frame rate                               : 23.976 fps
    Color space                              : YUV
    Chroma subsampling                       : 4:2:0
    Bit depth                                : 8 bits
    Scan type                                : Progressive
    Bits/(Pixel*Frame)                       : 0.192
    Stream size                              : 1.14 GiB (78%)
    Title                                    : Fredd Kruger
    Writing library                          : x264 core 135 r2345 f0c1c53
    Encoding settings                        : cabac=1 / ref=16 / deblock=1:-2:-2 / analyse=0x3:0x133 / me=umh / subme=11 / psy=1 / psy_rd=1.10:0.05 / mixed_ref=1 / me_range=48 / chroma_me=1 / trellis=2 / 8x8dct=1 / cqm=0 / deadzone=21,11 / fast_pskip=0 / chroma_qp_offset=-5 / threads=12 / lookahead_threads=3 / sliced_threads=0 / nr=0 / decimate=1 / interlaced=0 / bluray_compat=0 / constrained_intra=0 / bframes=14 / b_pyramid=2 / b_adapt=2 / b_bias=0 / direct=3 / weightb=1 / open_gop=0 / weightp=2 / keyint=250 / keyint_min=23 / scenecut=40 / intra_refresh=0 / rc_lookahead=80 / rc=2pass / mbtree=1 / bitrate=1546 / ratetol=1.0 / qcomp=0.70 / qpmin=0 / qpmax=69 / qpstep=4 / cplxblur=20.0 / qblur=0.5 / vbv_maxrate=50000 / vbv_bufsize=62500 / nal_hrd=none / ip_ratio=1.40 / aq=2:0.80
    Language                                 : English
    Default                                  : Yes
    Forced                                   : No
    Audio #1
    ID                                       : 2
    Format                                   : AC-3
    Format/Info                              : Audio Coding 3
    Mode extension                           : CM (complete main)
    Format settings, Endianness              : Big
    Codec ID                                 : A_AC3
    Duration                                 : 1h 48mn
    Bit rate mode                            : Constant
    Bit rate                                 : 192 Kbps
    Channel(s)                               : 2 channels
    Channel positions                        : Front: L R
    Sampling rate                            : 48.0 KHz
    Bit depth                                : 16 bits
    Compression mode                         : Lossy
    Stream size                              : 148 MiB (10%)
    Title                                    : Двухголосый закадровый, НТВ+
    Language                                 : Russian
    Default                                  : Yes
    Forced                                   : No
    Audio #2
    ID                                       : 3
    Format                                   : AC-3
    Format/Info                              : Audio Coding 3
    Mode extension                           : CM (complete main)
    Format settings, Endianness              : Big
    Codec ID                                 : A_AC3
    Duration                                 : 1h 48mn
    Bit rate mode                            : Constant
    Bit rate                                 : 192 Kbps
    Channel(s)                               : 2 channels
    Channel positions                        : Front: L R
    Sampling rate                            : 48.0 KHz
    Bit depth                                : 16 bits
    Compression mode                         : Lossy
    Stream size                              : 148 MiB (10%)
    Title                                    : Одноголосый закадровый, Ю. Сербин
    Language                                 : Russian
    Default                                  : No
    Forced                                   : No
    Text #1
    ID                                       : 4
    Format                                   : UTF-8
    Codec ID                                 : S_TEXT/UTF8
    Codec ID/Info                            : UTF-8 Plain Text
    Language                                 : English
    Default                                  : Yes
    Forced                                   : No
    Text #2
    ID                                       : 5
    Format                                   : UTF-8
    Codec ID                                 : S_TEXT/UTF8
    Codec ID/Info                            : UTF-8 Plain Text
    Title                                    : SRT
    Language                                 : English
    Default                                  : No
    Forced                                   : No
    Menu
    00:00:00.000                             : en:00:00:00.000
    00:04:19.424                             : en:00:04:19.424
    00:08:53.657                             : en:00:08:53.657
    00:12:09.145                             : en:00:12:09.145
    00:17:10.195                             : en:00:17:10.195
    00:21:05.263                             : en:00:21:05.263
    00:24:33.722                             : en:00:24:33.722
    00:26:19.494                             : en:00:26:19.494
    00:30:14.854                             : en:00:30:14.854
    00:33:42.770                             : en:00:33:42.770
    00:39:47.718                             : en:00:39:47.718
    00:42:25.583                             : en:00:42:25.583
    00:46:32.789                             : en:00:46:32.789
    00:48:27.821                             : en:00:48:27.821
    00:52:36.862                             : en:00:52:36.862
    00:55:56.143                             : en:00:55:56.143
    01:03:21.546                             : en:01:03:21.546
    01:07:20.453                             : en:01:07:20.453
    01:10:15.002                             : en:01:10:15.002
    01:13:06.506                             : en:01:13:06.506
    01:17:36.943                             : en:01:17:36.943
    01:22:18.808                             : en:01:22:18.808
    01:26:12.834                             : en:01:26:12.834
    01:28:48.865                             : en:01:28:48.865
    01:31:20.349                             : en:01:31:20.349
    01:37:53.576                             : en:01:37:53.576
    01:41:36.090                             : en:01:41:36.090
    01:44:13.287                             : en:01:44:13.287

    Скриншоты

    Скачать .torrent

    Скачать торрент-файл бесплатно и на максимальной скорости!

    Как скачивать? · Что такое торрент? · Рейтинг и ограничения

    !ВНИМАНИЕ!
    Сайт не распространяет и не хранит электронные версии произведений, а занимается лишь лишь предоставлением доступа к создаваемому пользователями каталогу ссылок на торрент-файлы, которые содержат только списки хеш-сумм, убедительная просьба с жалобами обращаться напрямую к пользователю. Файлы для обмена на трекере предоставлены пользователями сайта, и администрация не несёт ответственности за их содержание. Просьба не заливать файлы, защищенные авторскими правами, а также файлы нелегального содержания!

    [Профиль] [ЛС]
    Показать сообщения:    
    Ответить на тему

    Текущее время: Сегодня, в 18:12

    Часовой пояс: GMT + 2



    Вы не можете начинать темы
    Вы не можете отвечать на сообщения
    Вы не можете редактировать свои сообщения
    Вы не можете удалять свои сообщения
    Вы не можете голосовать в опросах
    Вы не можете прикреплять файлы к сообщениям
    Вы не можете скачивать файлы