BitTorrentTracker PerecTracker.org
BitTorrentTracker PerecTracker.org
    
Регистрация  ·  Вход
 
 · 
Забыли пароль?

  • Дороги (Андрей Гаврилов) [2015, Драма, криминал, WEBRip]

    Ответить на тему
     
    Автор Сообщение

    rechyn

    Создавать темы 28-Дек-2015 13:01

           

    [Цитировать]

    Дороги
    «Не важно на чем ты ездишь... главное как ты двигаешься и кому с тобой по пути!»
    Жанр: Драма, криминал
    Год выпуска: 2015
    Продолжительность: 01:34:48-Режиссёр: Андрей Гаврилов-В ролях: Иван Шаповалов, Владимир Заболотский, Константин Авдеев, Сергей Гореликов, Владимир Сычев, Марина Федункив, Максим Коновалов, Артем Карокозян, Артем Калайджян-Описание: Фильм о дорогах, как об автомобильных так и о жизненных, а еще о друзьях, которые друг другу дороги! Руся, Саня и Макс дружат с детства, но силой обстоятельств их дороги расходятся. Через несколько лет они встречаются и решают зарабатывать не честным путем. Почувствовав вкус денег, Руся пристрастился к наркотикам, Саня как и мечтал открыл спорт зал, а Макс увлечен своей девушкой и планирует создать семью. Однако дорога за легкими деньгами их затягивает и приводит совсем не туда куда они мечтали.- l -Качество видео: WEBRip
    Формат видео: AVI
    Видео: 672x304 (2.2:1), 25.000 fps, XviD build, 959 Kbps
    Аудио: 44.1 kHz, MPEG Layer 3, 2 ch, 128 Kbps--

    MediaInfo

    General
    Complete name : Dorogi.2015.WEBRip.avi
    Format : AVI
    Format/Info : Audio Video Interleave
    File size : 744 MiB
    Duration : 1h 34mn
    Overall bit rate : 1 097 Kbps
    Writing application : VirtualDubMod 1.5.10.3 | www.virtualdub-fr.org || (build 2550/release)
    Writing library : VirtualDubMod build 2550/release
    Video #0
    ID : 0
    Format : MPEG-4 Visual
    Format profile : Advanced Simple@L5
    Format settings, BVOP : 1
    Format settings, QPel : No
    Format settings, GMC : No warppoints
    Format settings, Matrix : Custom
    Codec ID : XVID
    Codec ID/Hint : XviD
    Duration : 1h 34mn
    Bit rate : 959 Kbps
    Width : 672 pixels
    Height : 304 pixels
    Display aspect ratio : 2.2:1
    Frame rate : 25.000 fps
    Color space : YUV
    Chroma subsampling : 4:2:0
    Bit depth : 8 bits
    Scan type : Progressive
    Compression mode : Lossy
    Bits/(Pixel*Frame) : 0.188
    Stream size : 651 MiB (87%)
    Writing library : XviD 73
    Audio #1
    ID : 1
    Format : MPEG Audio
    Format version : Version 1
    Format profile : Layer 3
    Codec ID : 55
    Codec ID/Hint : MP3
    Duration : 1h 34mn
    Bit rate mode : Constant
    Bit rate : 128 Kbps
    Channel(s) : 2 channels
    Sampling rate : 44.1 KHz
    Compression mode : Lossy
    Stream size : 86.8 MiB (12%)
    Alignment : Split accross interleaves
    Interleave, duration : 40 ms (1.00 video frame)
    Interleave, preload duration : 500 ms
    Writing library : LAME3.99r
    Encoding settings : -m s -V 4 -q 2 -lowpass 17 -b 128

    Скриншот c названием фильма

    Скриншоты

    Скачать .torrent

    Скачать торрент-файл бесплатно и на максимальной скорости!

    Как скачивать? · Что такое торрент? · Рейтинг и ограничения

    !ВНИМАНИЕ!
    Сайт не распространяет и не хранит электронные версии произведений, а занимается лишь лишь предоставлением доступа к создаваемому пользователями каталогу ссылок на торрент-файлы, которые содержат только списки хеш-сумм, убедительная просьба с жалобами обращаться напрямую к пользователю. Файлы для обмена на трекере предоставлены пользователями сайта, и администрация не несёт ответственности за их содержание. Просьба не заливать файлы, защищенные авторскими правами, а также файлы нелегального содержания!


    _________________
    [Профиль] [ЛС]
    Показать сообщения:    
    Ответить на тему

    Текущее время: Сегодня, в 22:21

    Часовой пояс: GMT + 2



    Вы не можете начинать темы
    Вы не можете отвечать на сообщения
    Вы не можете редактировать свои сообщения
    Вы не можете удалять свои сообщения
    Вы не можете голосовать в опросах
    Вы не можете прикреплять файлы к сообщениям
    Вы не можете скачивать файлы