BitTorrentTracker PerecTracker.org
BitTorrentTracker PerecTracker.org
    
Регистрация  ·  Вход
 
 · 
Забыли пароль?

  • [ATV3] Особо опасны / Savages (Оливер Стоун / Oliver Stone ) [2012, США, Триллер, драма, криминал, BDRip, HD (1080p)] [Unrated] DUB + Original + sub (rus, eng)

    Ответить на тему
     
    Автор Сообщение

    Flirldrerve

    Создавать темы 28-Дек-2015 13:01

           

    [Цитировать]

    Особо опасны / Savages
    (UNRATED)

    «Молодые, красивые, дерзкие»
    6.693 / 10 6.50 / 10
    -Год выпуска: 2012
    Страна: США
    Жанр: Триллер, драма, криминал
    Продолжительность: 02:21:10
    Перевод: Дублированный (Лицензия)
    Оригинальная аудиодорожка: Есть
    Cубтитры: Русские форсированные, Русские, Английские
    Режиссёр: Оливер Стоун
    Сценарий: Дон Уинслоу, Шейн Салерно, Оливер Стоун
    Продюсер: Мориц Борман, Эрик Копелофф, Тодд Арноу
    Оператор: Дэниэл Миндел
    Композитор: Адам Питерс
    Художник: Томас Вот, Лиза Васконселлос, Синди Эванс
    Монтаж: Джо Хатшинг, Стюарт Леви, Алекс Маркес
    В ролях: Тейлор Китч, Блейк Лайвли, Аарон Тейлор-Джонсон, Джон Траволта, Бенисио Дель Торо, Сальма Хайек, Эмиль Хирш, Демиан Бишир, Джоэль Мур, Ши Уигхэм
    Бюджет: $45 000 000
    Сборы в США: $47 382 068
    Сборы в мире: + $35 584 084 = $82 966 152
    Сборы в России: $4 063 709
    Мировая премьера: 25 июня 2012
    Премьера (РФ): 13 сентября 2012, «UPI»
    Релиз на DVD: 31 января 2013, «Двадцатый Век Фокс СНГ»
    Релиз на Blu-Ray: 31 января 2013, «Двадцатый Век Фокс СНГ»
    Описание: Молодые миллионеры Бен и Чон ведут дела на побережье Калифорнии. Бен — выдающийся ботаник и талантливый бизнесмен, Чон — мастер возвращения долгов и борьбы с конкурентами. В их работе много сложных моментов, ведь они выращивают лучшую в мире траву. Особо серьезные проблемы решает знакомый агент ФБР. Но с одной не сможет помочь даже он. Сверхприбыльным бизнесом заинтересовался мексиканский картель. Его возглавляет прекрасная Елена, и она нашла главную слабость друзей — и Бен, и Чон принадлежат одной девушке. Ради прелестной О. они готовы на все. Любовь делает нас особо опасными. Экранизация по произведению: Дон Уилсон.-Качество исходника: BDRemux (BlueBird)
    Качество: BDRip
    Тип: HD (1080p)
    Контейнер: M4V
    Видео: H.264, 1920x800, 2.40:1, 8 000 Kbps, 23.976 (24000/1001) fps
    Аудио 1: Русский/Дублированный (Лицензия), AAC / 2.0 / 156 Kbps / 48.0 KHz
    Аудио 2: Английский/Оригинальная дорожка , AAC / 2.0 / 156 Kbps / 48.0 KHz
    Аудио 3: Русский/Дублированный (Лицензия), AC-3 / 5.1 / 640 Kbps / 48.0 KHz
    Аудио 4: Английский/Оригинальная дорожка , AC-3 / 5.1 / 640 Kbps / 48.0 KHz
    Субтитры 1: Русские форсированные
    Субтитры 2: Русские полные
    Субтитры 3: Английские полные
    -

    iTunes Meta Tags

    Sort Name: Savages (Unrated)
    XID: Apple:vendor_id:2012-505903
    contentID: 567034123
    Copyright: © 2012 Universal Studios. All Rights Reserved.
    Screenwriters: Дон Уинслоу, Шейн Салерно, Оливер Стоун
    Producers: Мориц Борман, Эрик Копелофф, Тодд Арноу
    Director: Оливер Стоун
    Cast: Тейлор Китч, Блейк Лайвли, Аарон Тейлор-Джонсон, Джон Траволта, Бенисио Дель Торо, Сальма Хайек, Эмиль Хирш, Демиан Бишир, Джоэль Мур, Ши Уигхэм, Юрий Брежнев, Татьяна Шитова, Антон Эльдаров, Владимир Герасимов, Владимир Антоник
    Studio: Universal Pictures
    Rating: 0
    Long Description: Молодые миллионеры Бен и Чон ведут дела на побережье Калифорнии. Бен - выдающийся ботаник и талантливый бизнесмен, Чон - мастер возвращения долгов и борьбы с конкурентами. В их работе много сложных моментов, ведь они выращивают лучшую в мире траву. Особо серьезные проблемы решает знакомый агент ФБР.
    Но с одной не сможет помочь даже он. Сверхприбыльным бизнесом заинтересовался мексиканский картель. Его возглавляет прекрасная Елена, и она нашла главную слабость друзей - и Бен, и Чон принадлежат одной девушке. Ради прелестной О. они готовы на все. Любовь делает нас особо опасными.
    Description: Молодые миллионеры Бен и Чон ведут дела на побережье Калифорнии. Бен - выдающийся ботаник и талантливый бизнесмен, Чон - мастер возвращения долгов и борьбы с конкурентами. В их работе много сложных моментов, ведь они выращивают лучшую в мире траву. Особо серьезные проблемы решает знакомый агент ФБР.
    Но с одной не сможет помочь даже он. Сверхприбыльным бизнесом заинтересовался мексиканский картель. Его возглавляет прекрасная Елена, и она нашла главную слабость друзей - и Бен, и Чон принадлежат одной девушке. Ради прелестной О. они готовы на все. Любовь делает нас особо опасными.
    Release Date: 2012-06-25T08:00:00Z
    Genre: Thriller
    Artist: Oliver Stone
    Name: Savages (Unrated)

    MediaInfo

    General
    Complete name : /Users/imac/HandBrake/Savages (1080p HD) (Unrated).m4v
    Format : MPEG-4
    Codec ID : M4V  (M4V /M4A /mp42/isom)
    File size : 9.45 GiB
    Duration : 2h 21mn
    Overall bit rate mode : Variable
    Overall bit rate : 9 586 Kbps
    Movie name : Savages (Unrated)
    Performer : Oliver Stone
    Director : Оливер Стоун
    Actor : Тейлор Китч / Блейк Лайвли / Аарон Тейлор-Джонсон / Джон Траволта / Бенисио Дель Торо / Сальма Хайек / Эмиль Хирш / Демиан Бишир / Джоэль Мур / Ши Уигхэм / Юрий Брежнев / Татьяна Шитова / Антон Эльдаров / Владимир Герасимов / Владимир Антоник
    Screenplay by : Дон Уинслоу / Шейн Салерно / Оливер Стоун
    Producer : Мориц Борман / Эрик Копелофф / Тодд Арноу
    Production studio : Universal Pictures
    Genre : Thriller
    ContentType : Short Film
    Description : Молодые миллионеры Бен и Чон ведут дела на побережье Калифорнии. Бен - выдающийся ботаник и талантливый бизнесмен, Чон - мастер возвращения долгов и борьбы с конкурентами. В их работе много сложных моментов, ведь они выращивают лучшую в мире траву. Особо серьезные проблемы решает знакомый агент ФБР. / Но с одной не сможет помочь даже он. Сверхприбыльным бизнесом заинтересовался мексиканский картель. Его возглавляет прекрасная Елена, и она нашла главную слабость друзей - и Бен, и Чон принадлежат одной девушке. Ради прелестной О. они готовы на все. Любовь делает нас особо опасными.
    Recorded date : UTC 2012-06-25 08:00:00
    Encoded date : UTC 2015-12-27 21:21:01
    Tagged date : UTC 2015-12-27 21:27:59
    Copyright : © 2012 Universal Studios. All Rights Reserved.
    Cover : Yes
    Rating : None
    Title/Sort : Savages (Unrated)
    LongDescription : Молодые миллионеры Бен и Чон ведут дела на побережье Калифорнии. Бен - выдающийся ботаник и талантливый бизнесмен, Чон - мастер возвращения долгов и борьбы с конкурентами. В их работе много сложных моментов, ведь они выращивают лучшую в мире траву. Особо серьезные проблемы решает знакомый агент ФБР. / Но с одной не сможет помочь даже он. Сверхприбыльным бизнесом заинтересовался мексиканский картель. Его возглавляет прекрасная Елена, и она нашла главную слабость друзей - и Бен, и Чон принадлежат одной девушке. Ради прелестной О. они готовы на все. Любовь делает нас особо опасными.
    AppleStoreCatalogID : 567034123
    Vendor : Apple:vendor_id:2012-505903
    ContentRating : mpaa|Unrated|???|
    Video #1
    ID : 1
    Format : AVC
    Format/Info : Advanced Video Codec
    Format profile : High@L4
    Format settings, CABAC : Yes
    Format settings, ReFrames : 4 frames
    Codec ID : avc1
    Codec ID/Info : Advanced Video Coding
    Duration : 2h 21mn
    Source duration : 2h 21mn
    Bit rate : 8 000 Kbps
    Width : 1 920 pixels
    Height : 800 pixels
    Display aspect ratio : 2.40:1
    Frame rate mode : Variable
    Frame rate : 23.976 (24000/1001) fps
    Minimum frame rate : 23.810 fps
    Maximum frame rate : 24.272 fps
    Color space : YUV
    Chroma subsampling : 4:2:0
    Bit depth : 8 bits
    Scan type : Progressive
    Bits/(Pixel*Frame) : 0.217
    Stream size : 7.87 GiB (83%)
    Source stream size : 7.87 GiB (83%)
    Title : Main Program
    Writing library : x264 core 142 r2479 dd79a61
    Encoding settings : cabac=1 / ref=4 / deblock=1:-2:-2 / analyse=0x3:0x133 / me=umh / subme=10 / psy=1 / psy_rd=1.00:0.15 / mixed_ref=1 / me_range=32 / chroma_me=1 / trellis=2 / 8x8dct=1 / cqm=0 / deadzone=21,11 / fast_pskip=0 / chroma_qp_offset=-3 / threads=36 / lookahead_threads=6 / sliced_threads=0 / nr=0 / decimate=0 / interlaced=0 / bluray_compat=0 / constrained_intra=0 / bframes=16 / b_pyramid=2 / b_adapt=2 / b_bias=0 / direct=3 / weightb=1 / open_gop=0 / weightp=2 / keyint=240 / keyint_min=24 / scenecut=40 / intra_refresh=0 / rc_lookahead=60 / rc=2pass / mbtree=1 / bitrate=8000 / ratetol=1.0 / qcomp=0.70 / qpmin=0 / qpmax=69 / qpstep=4 / cplxblur=20.0 / qblur=0.5 / vbv_maxrate=25000 / vbv_bufsize=25000 / nal_hrd=none / filler=0 / ip_ratio=1.40 / aq=1:1.00
    Language : English
    Encoded date : UTC 2015-12-27 21:21:02
    Tagged date : UTC 2015-12-27 21:21:13
    Color range : Limited
    Color primaries : BT.709
    Transfer characteristics : BT.709
    Matrix coefficients : BT.709
    Menus : 9,10
    Video #2
    ID : 10
    Format : JPEG
    Codec ID : jpeg
    Duration : 2h 21mn
    Bit rate mode : Variable
    Bit rate : 812 bps
    Width : 640 pixels
    Height : 266 pixels
    Display aspect ratio : 2.40:1
    Frame rate mode : Variable
    Frame rate : 0.002 fps
    Minimum frame rate : 0.002 fps
    Maximum frame rate : 0.005 fps
    Color space : YUV
    Chroma subsampling : 4:2:0
    Bit depth : 8 bits
    Compression mode : Lossy
    Bits/(Pixel*Frame) : 2.385
    Stream size : 991 KiB (0%)
    Title : Chapter Images
    Language : English
    Default : No
    Encoded date : UTC 2015-12-27 21:21:34
    Tagged date : UTC 2015-12-27 21:21:34
    Menu For : 1
    Audio #1
    ID : 2
    Format : AAC
    Format/Info : Advanced Audio Codec
    Format profile : LC
    Codec ID : 40
    Duration : 2h 21mn
    Bit rate mode : Variable
    Bit rate : 156 Kbps
    Maximum bit rate : 262 Kbps
    Channel(s) : 2 channels
    Channel positions : Front: L R
    Sampling rate : 48.0 KHz
    Frame rate : 46.875 fps (1024 spf)
    Compression mode : Lossy
    Stream size : 158 MiB (2%)
    Title : Russian Stereo
    Language : Russian
    Default : Yes
    Alternate group : 1
    Encoded date : UTC 2015-12-27 21:21:01
    Tagged date : UTC 2015-12-27 21:21:17
    Fallback From : 4
    Subtitles : 6,7
    Menus : 9
    Audio #2
    ID : 3
    Format : AAC
    Format/Info : Advanced Audio Codec
    Format profile : LC
    Codec ID : 40
    Duration : 2h 21mn
    Bit rate mode : Variable
    Bit rate : 156 Kbps
    Maximum bit rate : 263 Kbps
    Channel(s) : 2 channels
    Channel positions : Front: L R
    Sampling rate : 48.0 KHz
    Frame rate : 46.875 fps (1024 spf)
    Compression mode : Lossy
    Stream size : 158 MiB (2%)
    Title : English Stereo
    Language : English
    Default : No
    Alternate group : 1
    Encoded date : UTC 2015-12-27 21:21:02
    Tagged date : UTC 2015-12-27 21:21:17
    Fallback From : 5
    Audio #3
    ID : 4
    Format : AC-3
    Format/Info : Audio Coding 3
    Mode extension : CM (complete main)
    Format settings, Endianness : Big
    Codec ID : ac-3
    Duration : 2h 21mn
    Bit rate mode : Constant
    Bit rate : 640 Kbps
    Channel(s) : 6 channels
    Channel positions : Front: L C R, Side: L R, LFE
    Sampling rate : 48.0 KHz
    Frame rate : 31.250 fps (1536 spf)
    Bit depth : 16 bits
    Compression mode : Lossy
    Stream size : 646 MiB (7%)
    Title : Russian DD 5.1
    Language : Russian
    Default : Inherited From: 2
    Alternate group : 1
    Encoded date : UTC 2015-12-27 21:21:02
    Tagged date : UTC 2015-12-27 21:21:15
    Fallback To : 2
    Subtitles : 6,7
    Audio #4
    ID : 5
    Format : AC-3
    Format/Info : Audio Coding 3
    Mode extension : CM (complete main)
    Format settings, Endianness : Big
    Codec ID : ac-3
    Duration : 2h 21mn
    Bit rate mode : Constant
    Bit rate : 640 Kbps
    Channel(s) : 6 channels
    Channel positions : Front: L C R, Side: L R, LFE
    Sampling rate : 48.0 KHz
    Frame rate : 31.250 fps (1536 spf)
    Bit depth : 16 bits
    Compression mode : Lossy
    Stream size : 646 MiB (7%)
    Title : English DD 5.1
    Language : English
    Default : No
    Alternate group : 1
    Encoded date : UTC 2015-12-27 21:21:02
    Tagged date : UTC 2015-12-27 21:21:15
    Fallback To : 3
    Text #1
    ID : 6
    Format : Timed Text
    Muxing mode : sbtl
    Codec ID : tx3g
    Duration : 1h 36mn
    Bit rate mode : Variable
    Bit rate : 1 bps
    Stream size : 1.00 KiB (0%)
    Title : Russian forced
    Language : Russian
    Default : Yes
    Forced : Yes
    Alternate group : 2
    Encoded date : UTC 2015-12-27 21:21:02
    Tagged date : UTC 2015-12-27 21:21:02
    Subtitles For : 2,4
    Full Alternative : 7
    Text #2
    ID : 7
    Format : Timed Text
    Muxing mode : sbtl
    Codec ID : tx3g
    Duration : 2h 16mn
    Bit rate mode : Variable
    Bit rate : 111 bps
    Stream size : 112 KiB (0%)
    Title : Russian full
    Language : Russian
    Default : No
    Forced : No
    Alternate group : 2
    Encoded date : UTC 2015-12-27 21:21:02
    Tagged date : UTC 2015-12-27 21:21:02
    Subtitles For : 2,4
    Forced Alternative : 6
    Text #3
    ID : 8
    Format : Timed Text
    Muxing mode : sbtl
    Codec ID : tx3g
    Duration : 2h 16mn
    Bit rate mode : Variable
    Bit rate : 65 bps
    Stream size : 65.5 KiB (0%)
    Title : English full
    Language : English
    Default : No
    Forced : No
    Alternate group : 2
    Encoded date : UTC 2015-12-27 21:21:02
    Tagged date : UTC 2015-12-27 21:21:02
    Menu #1
    00:00:00.000 : Chapter 00
    00:06:42.152 : Chapter 01
    00:13:40.737 : Chapter 02
    00:20:58.215 : Chapter 03
    00:24:36.934 : Chapter 04
    00:31:40.899 : Chapter 05
    00:41:50.258 : Chapter 06
    00:48:33.869 : Chapter 07
    00:57:19.519 : Chapter 08
    01:02:04.554 : Chapter 09
    01:11:21.819 : Chapter 10
    01:19:53.747 : Chapter 11
    01:28:03.236 : Chapter 12
    01:36:29.867 : Chapter 13
    01:43:49.849 : Chapter 14
    01:48:41.348 : Chapter 15
    01:56:37.032 : Chapter 16
    02:02:58.496 : Chapter 17
    02:11:47.024 : Chapter 18
    02:16:49.910 : Chapter 19
    Menu #2
    ID : 9
    Codec ID : text
    Duration : 2h 21mn
    Language : English
    Encoded date : UTC 2015-12-27 21:21:17
    Tagged date : UTC 2015-12-27 21:21:17
    Bit rate mode : CBR
    Menu For : 2,1
    00:00:00.000 : Chapter 00
    00:06:42.152 : Chapter 01
    00:13:40.737 : Chapter 02
    00:20:58.215 : Chapter 03
    00:24:36.934 : Chapter 04
    00:31:40.899 : Chapter 05
    00:41:50.258 : Chapter 06
    00:48:33.869 : Chapter 07
    00:57:19.519 : Chapter 08
    01:02:04.554 : Chapter 09
    01:11:21.819 : Chapter 10
    01:19:53.747 : Chapter 11
    01:28:03.236 : Chapter 12
    01:36:29.867 : Chapter 13
    01:43:49.849 : Chapter 14
    01:48:41.348 : Chapter 15
    01:56:37.032 : Chapter 16
    02:02:58.496 : Chapter 17
    02:11:47.024 : Chapter 18
    02:16:49.910 : Chapter 19

    x264 лог

    x264 [info]: frame I:1183  Avg QP:20.49  size:196737
    x264 [info]: frame P:48024 Avg QP:23.18  size: 64438
    x264 [info]: frame B:153868 Avg QP:23.86  size: 33309
    x264 [info]: consecutive B-frames:  3.2%  4.0% 13.3% 13.1% 15.1% 45.1%  3.9%  0.9%  0.5%  0.5%  0.2%  0.1%  0.0%  0.0%  0.0%  0.0%  0.0%
    x264 [info]: mb I  I16..4:  9.5% 78.8% 11.8%
    x264 [info]: mb P  I16..4:  2.0% 15.2%  0.9%  P16..4: 51.0% 14.9% 12.0%  0.2%  0.0%    skip: 3.8%
    x264 [info]: mb B  I16..4:  0.1%  2.5%  0.1%  B16..8: 47.2%  7.2%  1.7%  direct: 8.7%  skip:32.5%  L0:45.3% L1:48.0% BI: 6.7%
    x264 [info]: 8x8 transform intra:86.5% inter:70.3%
    x264 [info]: direct mvs  spatial:98.3% temporal:1.7%
    x264 [info]: coded y,uvDC,uvAC intra: 91.8% 90.9% 76.5% inter: 33.3% 41.5% 18.6%
    x264 [info]: i16 v,h,dc,p: 20% 17% 15% 48%
    x264 [info]: i8 v,h,dc,ddl,ddr,vr,hd,vl,hu:  7%  6%  6% 11% 16% 14% 15% 12% 13%
    x264 [info]: i4 v,h,dc,ddl,ddr,vr,hd,vl,hu:  8%  8%  2% 10% 16% 15% 16% 11% 14%
    x264 [info]: i8c dc,h,v,p: 48% 16% 15% 20%
    x264 [info]: Weighted P-Frames: Y:2.4% UV:1.2%
    x264 [info]: ref P L0: 51.1% 11.8% 25.9%  9.5%  1.7%  0.0%
    x264 [info]: ref B L0: 84.6% 12.7%  2.6%
    x264 [info]: ref B L1: 91.7%  8.3%

    Скриншоты

    -

    Релиз подготовлен для просмотра на Apple TV, iPad, iPhone, iPod Touch.
    Для просмотра данного релиза на компьютере с ОС Windows рекомендуется использовать VLC media player
    Скачать .torrent

    Скачать торрент-файл бесплатно и на максимальной скорости!

    Как скачивать? · Что такое торрент? · Рейтинг и ограничения

    !ВНИМАНИЕ!
    Сайт не распространяет и не хранит электронные версии произведений, а занимается лишь лишь предоставлением доступа к создаваемому пользователями каталогу ссылок на торрент-файлы, которые содержат только списки хеш-сумм, убедительная просьба с жалобами обращаться напрямую к пользователю. Файлы для обмена на трекере предоставлены пользователями сайта, и администрация не несёт ответственности за их содержание. Просьба не заливать файлы, защищенные авторскими правами, а также файлы нелегального содержания!


    _________________
    [Профиль] [ЛС]
    Показать сообщения:    
    Ответить на тему

    Текущее время: Сегодня, в 21:57

    Часовой пояс: GMT + 2



    Вы не можете начинать темы
    Вы не можете отвечать на сообщения
    Вы не можете редактировать свои сообщения
    Вы не можете удалять свои сообщения
    Вы не можете голосовать в опросах
    Вы не можете прикреплять файлы к сообщениям
    Вы не можете скачивать файлы