BitTorrentTracker PerecTracker.org
BitTorrentTracker PerecTracker.org
    
Регистрация  ·  Вход
 
 · 
Забыли пароль?

  • Замороженные во времени / Frozen in Time (Алекс Люн / Alex Leung) [2014, США, Приключения, семейный, комедия, DVB] Dub

    Ответить на тему
     
    Автор Сообщение

    rechyn

    Создавать темы 28-Дек-2015 08:57

           

    [Цитировать]

    Замороженные во времени / Frozen in Time
    Страна: США
    Жанр: Приключения, семейный, комедия
    Продолжительность: 00:43:49
    Год выпуска: 2014
    Перевод: Профессиональный (дублированный)
    Русские субтитры: нет
    Режиссёр: Алекс Люн / Alex Leung
    Роли озвучивали: Эдвард Аснер, Дрэйк Белл, Валин Шиней, Мира Сорвино
    Описание: Из-за своего непослушного характера и неусидчивости, Эрик и Пети оказались Затерявшиеся во времени. Родители всегда строго запрещали детям заходить в старую мастерскую деда, именно это стало причиной попасть туда любой ценой и нарушить родительский запрет. В канун Рождества Эрик и Пети все же попали туда и там на самом деле все было очень старым. Но больше всего, детей заинтересовали антикварные часы, которые уже давно не работали. Дети некоторое время поиграли ими и каким-то образом затерялись во времени. Они оказались между временем и пространством и теперь не знают как вернуться обратно. Смотрите мультфильм "Затерявшиеся во времени" и вы узнаете, смогут ли дети все исправить и встретить Рождество рядом с родными...
    Семпл: https://www.sendspace.com/file/nfo7j9
    Качество: DVB
    Формат: MPG
    Видео: MPEG2, 720:576, (4:3), 2185 Кбит/сек, 25,000 кадров/сек, (0.211 bit/pixel)
    Аудио: MP2, 192 Кбит/сек, 48,0 КГц, 2 канала
    Субтитры: Отсутствуют

    Подробные технические данные

    ОбщееПолное имя : Замороженные во времени.mpgФормат : MPEG-PSРазмер файла : 731 МбайтПродолжительность : 42 м.Режим общего битрейта : ПеременныйОбщий поток : 2426 Кбит/сек
    ВидеоИдентификатор : 224 (0xE0)Формат : MPEG VideoВерсия формата : Version 2Профиль формата : Main@MainПараметр BVOP формата : ДаПараметр матрицы формата : ВыборочнаяПараметр GOP формата : VariableСтруктура изображения : FrameПродолжительность : 42 м.Вид битрейта : ПеременныйБитрейт : 2185 Кбит/секМаксимальный битрейт : 15,0 Мбит/секШирина : 720 пикселейВысота : 576 пикселейСоотношение сторон : 4:3Частота кадров : 25,000 кадров/секСтандарт вещания : PALЦветовое пространство : YUVСубдискретизация насыщенности : 4:2:0Битовая глубина : 8 битТип развёртки : ЧересстрочнаяПорядок развёртки : Верхнее поле первоеМетод сжатия : С потерямиБит/(Пиксели*Кадры) : 0.211Временной код первого кадра : 00:00:00:00Оригинал временного кода : Group of pictures headerGOP, открыто/закрыто : ОткрытоGOP, открыто/закрыто на первом кадре : ЗакрытоРазмер потока : 659 Мбайт (90%)
    АудиоИдентификатор : 192 (0xC0)Формат : MPEG AudioВерсия формата : Version 1Профиль формата : Layer 2Продолжительность : 42 м.Вид битрейта : ПостоянныйБитрейт : 192 Кбит/секКаналы : 2 каналаЧастота : 48,0 КГцМетод сжатия : С потерямиЗадержка видео : 1 мс.Размер потока : 57,9 Мбайт (8%)

    Скриншоты

    Запись потока *.ts произведена тюнером цифрового телевидения. В связи с тем, что не все плееры воспроизводят поток *.ts (MPEG-TS) , в данном видеофайле мной был сделан ремукс потока *.ts (MPEG-TS) в *.mpg (MPEG-PS) программой VideoReDo.
    Скачать .torrent

    Скачать торрент-файл бесплатно и на максимальной скорости!

    Как скачивать? · Что такое торрент? · Рейтинг и ограничения

    !ВНИМАНИЕ!
    Сайт не распространяет и не хранит электронные версии произведений, а занимается лишь лишь предоставлением доступа к создаваемому пользователями каталогу ссылок на торрент-файлы, которые содержат только списки хеш-сумм, убедительная просьба с жалобами обращаться напрямую к пользователю. Файлы для обмена на трекере предоставлены пользователями сайта, и администрация не несёт ответственности за их содержание. Просьба не заливать файлы, защищенные авторскими правами, а также файлы нелегального содержания!


    _________________
    [Профиль] [ЛС]

    -746

    Создавать темы 28-Дек-2015 09:37 (спустя 40 минут)

           

    Топик был перенесен из форума Иностранные мультфильмы в форум Новогодние релизы - Фильмы, Мультфильмы


    -sasha2006

    _________________
    Как бы ты высоко не летал, не забывай, с кем ты ползал..
     
    Показать сообщения:    
    Ответить на тему

    Текущее время: Сегодня, в 04:13

    Часовой пояс: GMT + 2



    Вы не можете начинать темы
    Вы не можете отвечать на сообщения
    Вы не можете редактировать свои сообщения
    Вы не можете удалять свои сообщения
    Вы не можете голосовать в опросах
    Вы не можете прикреплять файлы к сообщениям
    Вы не можете скачивать файлы