Register  ·  Log in
Forgot password?

  • Беспечный ездок: Снова в седле / Easy Rider: The Ride Back (Дастин Рикерт / Dustin Rikert) [2013, США, Драма, Приключения, DVDRip] VO (Васька Куролесов)

    Reply to topic
    Author Message


    Post 27-Dec-2015 12:25



    Беспечный ездок: Снова в седле / Easy Rider: The Ride Back
    Страна: США
    Жанр: Драма, Приключения
    Год выпуска: 2013
    Продолжительность: 01:38:36
    Перевод: Одноголосый закадровый Васька Куролесов по субтитрам Enigma
    Cубтитры: нет
    Оригинальная аудиодорожка: нет
    Режиссер: Дастин Рикерт / Dustin Rikert
    В ролях: Крис Энджен, Шири Дж. Уилсон, Джефф Фэйи, Мишелль Борт, Рэнс Ховард, Лоурэли Белл, Майкл Нури, Марк Алдерсон, Ньюэлл Александр, Катрина Бэйкер
    Описание: Что нужно для счастья настоящему байкеру? Правильно, резвый мотоцикл, неиссякаемое желание скорости, а также команда верных друзей и единомышленников. Эти элементарные истины не понаслышке известны главному герою фильма "Беспечный ездок: Снова в седле" Уайатту Уильямсу — свободолюбивому бунтарю и бывалому лихачу, вечному нарушителю многообразных правил и ревностному проповеднику свободы и независимости.
    Доп.инфа: отдельное спасибо ХулиГанстер за помощь в создании проекта!
    Качество видео: DVDRip
    Формат видео: AVI
    Видео: XviD, 1918 Кбит/с, 720x304, 23.976 fps
    Аудио: AC-3, 2 ch, 192 Кбит/с, 48.0 KHz


    Complete name : G:\easy.rider.the.ride.back.2013.KypoJIecoB.avi
    Format : AVI
    Format/Info : Audio Video Interleave
    File size : 1.46 GiB
    Duration : 1h 38mn
    Overall bit rate : 2 120 Kbps
    ID : 0
    Format : MPEG-4 Visual
    Format profile : Advanced Simple@L5
    Format settings, BVOP : 2
    Format settings, QPel : No
    Format settings, GMC : No warppoints
    Format settings, Matrix : Default (H.263)
    Codec ID : XVID
    Codec ID/Hint : XviD
    Duration : 1h 38mn
    Bit rate : 1 918 Kbps
    Width : 720 pixels
    Height : 304 pixels
    Display aspect ratio : 2.35:1
    Frame rate : 23.976 fps
    Color space : YUV
    Chroma subsampling : 4:2:0
    Bit depth : 8 bits
    Scan type : Progressive
    Compression mode : Lossy
    Bits/(Pixel*Frame) : 0.365
    Stream size : 1.32 GiB (90%)
    Writing library : XviD 67
    ID : 1
    Format : AC-3
    Format/Info : Audio Coding 3
    Mode extension : CM (complete main)
    Format settings, Endianness : Big
    Codec ID : 2000
    Duration : 1h 38mn
    Bit rate mode : Constant
    Bit rate : 192 Kbps
    Channel(s) : 2 channels
    Channel positions : Front: L R
    Sampling rate : 48.0 KHz
    Compression mode : Lossy
    Stream size : 135 MiB (9%)
    Alignment : Split accross interleaves
    Interleave, duration : 42 ms (1.00 video frame)
    Interleave, preload duratio : 500 ms

    Скриншот c названием фильма


    Download .torrent

    Download free and at maximum speed!

    How to Download? · What is a torrent? · Ratings and Limitations

    The site does not extend and does not store electronic(digital) versions of products, and only gives access to a reference catalogue created by users on torrent-files which contain only lists of the hash-sums, the earnest entreaty, with complaints(abuse) to access directly to the user. Files for an exchange on tracker are given by users of a site, and the administration does not bear the responsibility for their maintenance. The request to not fill in the files protected by copyrights, and also files of the illegal maintenance!

    [Profile] [PM]
    Display posts from previous:    
    Reply to topic

    The time now is: Today 12:07

    All times are GMT + 3 Hours

    You cannot post new topics in this forum
    You cannot reply to topics in this forum
    You cannot edit your posts in this forum
    You cannot delete your posts in this forum
    You cannot vote in polls in this forum
    You cannot attach files in this forum
    You cannot download files in this forum