BitTorrentTracker PerecTracker.org
BitTorrentTracker PerecTracker.org
    
Регистрация  ·  Вход
 
 · 
Забыли пароль?

  • [ATV3] Страна ОЗ (Василий Сигарев) [2015, Россия, Комедия, WEB-DL, HD (1080p)] Original

    Ответить на тему
     
    Автор Сообщение

    Flirldrerve

    Создавать темы 26-Дек-2015 22:55

           

    [Цитировать]

    Страна ОЗ
    «Скоро Новый год! Пора выбрасывать ёлки!»
    6.771 / 10 7.80 / 10
    -Год выпуска: 2015
    Страна: Россия
    Жанр: Комедия
    Продолжительность: 01:39:48
    Перевод: Не требуется
    Оригинальная аудиодорожка: Есть
    Cубтитры: Нет
    Режиссёр: Василий Сигарев
    Сценарий: Василий Сигарев, Андрей Ильенков
    Продюсер: Софико Кикнавелидзе, Дмитрий Улюкаев
    Оператор: Дмитрий Улюкаев
    Художник: Антон Поликарпов, Надежда Васильева
    Монтаж: Даша Данилова
    В ролях: Яна Троянова, Гоша Куценко, Андрей Ильенков, Александр Баширов, Евгений Цыганов, Владимир Симонов, Инна Чурикова, Светлана Камынина, Юлия Снигирь, Алиса Хазанова
    Бюджет: $1 500 000
    Сборы в России: $319 830
    Мировая премьера: 8 ноября 2015
    Премьера (РФ): 3 декабря 2015, «Парадиз»
    Описание: Новый год в России — стихия неуправляемая и беспощадная. Именно в это волшебное время непостижимый колорит русской души проявляет себя во всей красе. Пока жители Екатеринбурга готовятся к главному национальному празднику и шинкуют оливье, Ленка Шабадинова спешит до боя курантов принять смену в киоске на улице Торфорезов. Но она даже не подозревает, что новогодняя ночь приготовила для нее свой безумный сценарий.-Качество исходника: WEB-DL 1080p (BlueBird)
    Качество: WEB-DL
    Тип: HD (1080p)
    Контейнер: M4V
    Видео: H.264, 1920x1034, 1.85:1, 5 131 Kbps, 24.000 fps
    Аудио 1: Русский/Оригинальная дорожка , AAC / 2.0 / 156 Kbps / 48.0 KHz
    Аудио 2: Русский/Оригинальная дорожка , AC-3 / 5.1 / 384 Kbps / 48.0 KHz
    -

    iTunes Meta Tags

    Sort Name: Страна ОЗ
    XID: Apple:vendor_id:2015-820668
    contentID: 1062948855
    Copyright: © 2015 Белое Зеркало
    Screenwriters: Василий Сигарев, Андрей Ильенков
    Producers: Софико Кикнавелидзе, Дмитрий Улюкаев
    Director: Василий Сигарев
    Cast: Яна Троянова, Гоша Куценко, Андрей Ильенков, Александр Баширов, Евгений Цыганов, Владимир Симонов, Инна Чурикова, Светлана Камынина, Юлия Снигирь, Алиса Хазанова
    Studio: Белое Зеркало
    Rating: 136
    Long Description: Новый год в России - стихия неуправляемая и беспощадная. Именно в это волшебное время непостижимый колорит русской души проявляет себя во всей красе. Пока жители Екатеринбурга готовятся к главному национальному празднику и шинкуют оливье, Ленка Шабадинова спешит до боя курантов принять смену в киоске на улице Торфорезов. Но она даже не подозревает, что новогодняя ночь приготовила для нее свой безумный сценарий.
    Description: Новый год в России - стихия неуправляемая и беспощадная. Именно в это волшебное время непостижимый колорит русской души проявляет себя во всей красе. Пока жители Екатеринбурга готовятся к главному национальному празднику и шинкуют оливье, Ленка Шабадинова спешит до боя курантов принять смену в киоске на улице Торфорезов. Но она даже не подозревает, что новогодняя ночь приготовила для нее свой безумный сценарий.
    Release Date: 2015-11-08T08:00:00Z
    Genre: Русское кино
    Artist: Василий Сигарев
    Name: Страна ОЗ

    MediaInfo

    General
    Complete name : /Users/imac/HandBrake/Strana.OZ.WEB-DL.1080p.m4v
    Format : MPEG-4
    Codec ID : M4V  (M4V /M4A /mp42/isom)
    File size : 3.96 GiB
    Duration : 1h 39mn
    Overall bit rate mode : Variable
    Overall bit rate : 5 678 Kbps
    Movie name : Страна ОЗ
    Performer : Василий Сигарев
    Director : Василий Сигарев
    Actor : Яна Троянова / Гоша Куценко / Андрей Ильенков / Александр Баширов / Евгений Цыганов / Владимир Симонов / Инна Чурикова / Светлана Камынина / Юлия Снигирь / Алиса Хазанова
    Screenplay by : Василий Сигарев / Андрей Ильенков
    Producer : Софико Кикнавелидзе / Дмитрий Улюкаев
    Production studio : Белое Зеркало
    Genre : Русское кино
    ContentType : Short Film
    Description : Новый год в России - стихия неуправляемая и беспощадная. Именно в это волшебное время непостижимый колорит русской души проявляет себя во всей красе. Пока жители Екатеринбурга готовятся к главному национальному празднику и шинкуют оливье, Ленка Шабадинова спешит до боя курантов принять смену в киоске на улице Торфорезов. Но она даже не подозревает, что новогодняя ночь приготовила для нее свой безумный сценарий.
    Recorded date : UTC 2015-11-08 08:00:00
    Encoded date : UTC 2015-12-26 10:37:57
    Tagged date : UTC 2015-12-26 10:38:49
    Copyright : © 2015 Белое Зеркало
    Cover : Yes
    Rating : None
    Title/Sort : Страна ОЗ
    LongDescription : Новый год в России - стихия неуправляемая и беспощадная. Именно в это волшебное время непостижимый колорит русской души проявляет себя во всей красе. Пока жители Екатеринбурга готовятся к главному национальному празднику и шинкуют оливье, Ленка Шабадинова спешит до боя курантов принять смену в киоске на улице Торфорезов. Но она даже не подозревает, что новогодняя ночь приготовила для нее свой безумный сценарий.
    AppleStoreCatalogID : 1062948855
    Vendor : Apple:vendor_id:2015-820668
    ContentRating : ru-movie|18+|400|
    Video #1
    ID : 1
    Format : AVC
    Format/Info : Advanced Video Codec
    Format profile : High@L4
    Format settings, CABAC : Yes
    Format settings, ReFrames : 4 frames
    Codec ID : avc1
    Codec ID/Info : Advanced Video Coding
    Duration : 1h 39mn
    Bit rate : 5 131 Kbps
    Width : 1 920 pixels
    Height : 1 034 pixels
    Display aspect ratio : 1.85:1
    Frame rate mode : Variable
    Frame rate : 24.000 fps
    Minimum frame rate : 23.810 fps
    Maximum frame rate : 24.390 fps
    Color space : YUV
    Chroma subsampling : 4:2:0
    Bit depth : 8 bits
    Scan type : Progressive
    Bits/(Pixel*Frame) : 0.108
    Stream size : 3.58 GiB (90%)
    Title : Main Program
    Language : Russian
    Encoded date : UTC 2015-12-26 10:37:57
    Tagged date : UTC 2015-12-26 10:38:02
    Color range : Limited
    Color primaries : BT.709
    Transfer characteristics : BT.709
    Matrix coefficients : BT.709
    Menus : 4,5
    Video #2
    ID : 5
    Format : JPEG
    Codec ID : jpeg
    Duration : 1h 39mn
    Bit rate mode : Variable
    Bit rate : 1 236 bps
    Width : 640 pixels
    Height : 344 pixels
    Display aspect ratio : 1.85:1
    Frame rate mode : Variable
    Frame rate : 0.003 fps
    Minimum frame rate : 0.002 fps
    Maximum frame rate : 0.003 fps
    Color space : YUV
    Chroma subsampling : 4:2:0
    Bit depth : 8 bits
    Compression mode : Lossy
    Bits/(Pixel*Frame) : 1.871
    Stream size : 855 KiB (0%)
    Title : Chapter Images
    Language : Russian
    Default : No
    Encoded date : UTC 2015-12-26 10:38:11
    Tagged date : UTC 2015-12-26 10:38:11
    Menu For : 1
    Audio #1
    ID : 2
    Format : AAC
    Format/Info : Advanced Audio Codec
    Format profile : LC
    Codec ID : 40
    Duration : 1h 39mn
    Bit rate mode : Variable
    Bit rate : 156 Kbps
    Maximum bit rate : 257 Kbps
    Channel(s) : 2 channels
    Channel positions : Front: L R
    Sampling rate : 48.0 KHz
    Frame rate : 46.875 fps (1024 spf)
    Compression mode : Lossy
    Stream size : 111 MiB (3%)
    Title : Russian Stereo
    Language : Russian
    Default : Yes
    Alternate group : 1
    Encoded date : UTC 2015-12-26 10:37:57
    Tagged date : UTC 2015-12-26 10:38:04
    Fallback From : 3
    Audio #2
    ID : 3
    Format : AC-3
    Format/Info : Audio Coding 3
    Mode extension : CM (complete main)
    Format settings, Endianness : Big
    Codec ID : ac-3
    Duration : 1h 39mn
    Bit rate mode : Constant
    Bit rate : 384 Kbps
    Channel(s) : 6 channels
    Channel positions : Front: L C R, Side: L R, LFE
    Sampling rate : 48.0 KHz
    Frame rate : 31.250 fps (1536 spf)
    Bit depth : 16 bits
    Compression mode : Lossy
    Stream size : 274 MiB (7%)
    Title : Russian DD 5.1
    Language : Russian
    Default : Inherited From: 2
    Alternate group : 1
    Encoded date : UTC 2015-12-26 10:37:57
    Tagged date : UTC 2015-12-26 10:38:03
    Fallback To : 2
    Menu #1
    00:00:00.000 : Глава 1
    00:05:34.000 : Глава 2
    00:11:06.000 : Глава 3
    00:18:00.000 : Глава 4
    00:25:01.000 : Глава 5
    00:30:02.000 : Глава 6
    00:35:58.000 : Глава 7
    00:41:20.000 : Глава 8
    00:47:03.000 : Глава 9
    00:54:18.000 : Глава 10
    00:59:58.000 : Глава 11
    01:05:34.000 : Глава 12
    01:10:55.000 : Глава 13
    01:16:00.000 : Глава 14
    01:22:47.000 : Глава 15
    01:28:12.000 : Глава 16
    01:33:39.000 : Глава 17
    Menu #2
    ID : 4
    Codec ID : text
    Duration : 1h 39mn
    Language : Russian
    Encoded date : UTC 2015-12-26 10:38:05
    Tagged date : UTC 2015-12-26 10:38:05
    Menu For : 1
    00:00:00.000 : Глава 1
    00:05:34.000 : Глава 2
    00:11:06.000 : Глава 3
    00:18:00.000 : Глава 4
    00:25:01.000 : Глава 5
    00:30:02.000 : Глава 6
    00:35:58.000 : Глава 7
    00:41:20.000 : Глава 8
    00:47:03.000 : Глава 9
    00:54:18.000 : Глава 10
    00:59:58.000 : Глава 11
    01:05:34.000 : Глава 12
    01:10:55.000 : Глава 13
    01:16:00.000 : Глава 14
    01:22:47.000 : Глава 15
    01:28:12.000 : Глава 16
    01:33:39.000 : Глава 17
    Bit rate mode : VBR

    Скриншоты

    -

    Релиз подготовлен для просмотра на Apple TV, iPad, iPhone, iPod Touch.
    Для просмотра данного релиза на компьютере с ОС Windows рекомендуется использовать VLC media player
    Скачать .torrent

    Скачать торрент-файл бесплатно и на максимальной скорости!

    Как скачивать? · Что такое торрент? · Рейтинг и ограничения

    !ВНИМАНИЕ!
    Сайт не распространяет и не хранит электронные версии произведений, а занимается лишь лишь предоставлением доступа к создаваемому пользователями каталогу ссылок на торрент-файлы, которые содержат только списки хеш-сумм, убедительная просьба с жалобами обращаться напрямую к пользователю. Файлы для обмена на трекере предоставлены пользователями сайта, и администрация не несёт ответственности за их содержание. Просьба не заливать файлы, защищенные авторскими правами, а также файлы нелегального содержания!


    _________________
    [Профиль] [ЛС]
    Показать сообщения:    
    Ответить на тему

    Текущее время: Сегодня, в 00:00

    Часовой пояс: GMT + 2



    Вы не можете начинать темы
    Вы не можете отвечать на сообщения
    Вы не можете редактировать свои сообщения
    Вы не можете удалять свои сообщения
    Вы не можете голосовать в опросах
    Вы не можете прикреплять файлы к сообщениям
    Вы не можете скачивать файлы