BitTorrentTracker PerecTracker.org
BitTorrentTracker PerecTracker.org
    
Регистрация  ·  Вход
 
 · 
Забыли пароль?

  • Временно недоступен ( Михаил Хлебородов) (Серии 1-8 из 8) [2015 , Комедия , HDTVRip 1080p]

    Ответить на тему
     
    Автор Сообщение

    Враг Нароода

    Создавать темы 26-Дек-2015 12:44

           

    [Цитировать]

    --Временно недоступен Серии 1-8 из 8----Год выпуска: 2015
    Выпущено: Россия, ,Magic Factory, Front Line Studio
    Жанр: Комедия
    Продолжительность: 00:50:00
    Серии: 1-8
    Количество серий в сезоне: 8
    Перевод :Не требуется
    Субтитры: Нет----Режиссер: Михаил Хлебородов --В ролях: Сергей Безруков, Дмитрий Дюжев, Вера Шпак, Екатерина Федулова, Валерия Ланская, Олег Тактаров, Ричард Бондарев, Дмитрий Хрусталёв, Георгий Мартиросян, Александр Тютин, Сергей Вершинин, Евгения Нохрина, Олег Чудницов, Елена Киркова, Александр Аноприков, Андрей Кивинов, Антон Ескин, Сергей Стёпин, Любовь Фирсова, Андрей Лебедев, Олег Макаров, Бесо Гатаев, Виктор Муравский, Игорь Маслов (II), Михаил Гудошников, Екатерина Захарова (II), Ирина Токмакова, Анна Перелешина, Сергей Астахов, Константин Мурзенко, Александр Баширов, Мария Романова--Если вы всего лишь мелкий чиновник или следователь следственного отдела, вам наверняка кажется, что ничего экстраординарного в вашей жизни произойти не может, потому что этого не может быть никогда. Но стоит сделать только один неверный шаг, совершить необдуманный поступок, сесть в случайную машину, обнаружить у себя чужие документы, и Ваша жизнь независимо от вас может изменить привычное русло и потечь в неизвестном направлении.----Качество :HDTVRip 1080p
    Формат: MKV
    Видео кодек: H264
    Видео: 5831Кбит/сек,1920х1080(16.9),в 29.976кадр/сек,AVC(High@L4)(CABAC/2 Ref Frames)
    Аудио Кодек:AC3
    Аудио Russian Dolby Digital 5.1:AC3 , 384 Kbps, 48.0 KHz, 6 ch--

    Доп. информация:

    Звуковая дорожка сделана путем наложения чистого голоса озвучивателей на центральный канал оригинальной дорожки. Качество идентично звуковой дорожке.
    --

    MediaInfo

    Общее
    Уникальный идентификатор : 205575194229316547958043330645782347264 (0x9AA8579CF8B9B3C098B1C5AE01D6BE00)
    Полное имя : D:\НАШЕ КИНО\ВРЕМЕННО НЕДОСТУПЕН\Vremenno_nedostupen_2015_E01_-_Е08_RUS[1Canal_Russia]_H264_DD5.1_N.B_HDTVRip_1080p\Vremenno_nedostupen_2015_E01_-_Е02_RUS[1Canal_Russia]_H264_DD5.1_N.B_HDTVRip_1080p.mkv
    Формат : Matroska
    Версия формата : Version 4 / Version 2
    Размер файла : 4,48 Гбайт
    Продолжительность : 1 ч. 43 м.
    Режим общего битрейта : Переменный
    Общий поток : 6218 Кбит/сек
    Название фильма : Vremenno_nedostupen_2015_E01_-_Е02_RUS[1Canal_Russia]_H264_DD5.1_N.B_HDTVRip_1080p
    Дата кодирования : UTC 2015-12-25 12:46:59
    Программа кодирования : mkvmerge v8.6.1 ('Flying') 64bit
    Библиотека кодирования : libebml v1.3.3 + libmatroska v1.4.4
    Видео
    Идентификатор : 1
    Формат : AVC
    Формат/Информация : Advanced Video Codec
    Профиль формата : High@L4
    Параметр CABAC формата : Да
    Параметр ReFrames формата : 2 кадра
    Параметр GOP формата : M=2, N=15
    Идентификатор кодека : V_MPEG4/ISO/AVC
    Продолжительность : 1 ч. 43 м.
    Вид битрейта : Переменный
    Битрейт : 5831 Кбит/сек
    Максимальный битрейт : 16,0 Мбит/сек
    Ширина : 1920 пикселей
    Высота : 1080 пикселей
    Соотношение сторон : 16:9
    Режим частоты кадров : Переменный
    Частота кадров : 49,812 кадров/сек
    Частота кадров в оригинале : 29,970 (30000/1001) кадров/сек
    Цветовое пространство : YUV
    Субдискретизация насыщенности : 4:2:0
    Битовая глубина : 8 бит
    Тип развёртки : Прогрессивная
    Бит/(Пиксели*Кадры) : 0.056
    Размер потока : 4,20 Гбайт (94%)
    Язык : English
    Default : Нет
    Forced : Нет
    Аудио
    Идентификатор : 2
    Формат : AC-3
    Формат/Информация : Audio Coding 3
    Расширение режима : CM (complete main)
    Параметр Endianness формата : Big
    Идентификатор кодека : A_AC3
    Продолжительность : 1 ч. 43 м.
    Вид битрейта : Постоянный
    Битрейт : 384 Кбит/сек
    Каналы : 6 каналов
    Расположение каналов : Front: L C R, Side: L R, LFE
    Частота : 48,0 КГц
    Частота кадров : 31,250 кадров/сек (1536 spf)
    Метод сжатия : С потерями
    Размер потока : 283 Мбайт (6%)
    Default : Нет
    Forced : Нет
    --

    Скриншоты

    ----

    Как закачать отдельный файл

    1. Открыть торрент
    2. Снять галки с тех файлов торрента, которые мы не хотим закачивать. Оставляем только на нужных нам файлах (файле).
    3. Нажать О.К.
    В клиенте utorrent
    Инструкция
    1) Открыть торрент

    2) Снять галки с тех файлов торрента, которые мы не хотим закачивать:
    * либо вручную, снимая с каждого файла галку( скрин №1)
    * либо, нажав кнопку "Снять метки (Select None)", сняв сразу со всех файлов(скрин №2)
    №1

    №2

    Оставляем только на нужных нам файлах (файле).

    3)Нажать О.К
    ------Релиз от: Nikolai.Baranov & PIRATIYA --------
    Скачать .torrent

    Скачать торрент-файл бесплатно и на максимальной скорости!

    Как скачивать? · Что такое торрент? · Рейтинг и ограничения

    !ВНИМАНИЕ!
    Сайт не распространяет и не хранит электронные версии произведений, а занимается лишь лишь предоставлением доступа к создаваемому пользователями каталогу ссылок на торрент-файлы, которые содержат только списки хеш-сумм, убедительная просьба с жалобами обращаться напрямую к пользователю. Файлы для обмена на трекере предоставлены пользователями сайта, и администрация не несёт ответственности за их содержание. Просьба не заливать файлы, защищенные авторскими правами, а также файлы нелегального содержания!


    _________________

    Легко быть оптимистом, когда судьба не валит с ног тяжелыми ударами, а лишь иногда легонько шлепает по заднице.
    [Профиль] [ЛС]
    Показать сообщения:    
    Ответить на тему

    Текущее время: Сегодня, в 18:02

    Часовой пояс: GMT + 2



    Вы не можете начинать темы
    Вы не можете отвечать на сообщения
    Вы не можете редактировать свои сообщения
    Вы не можете удалять свои сообщения
    Вы не можете голосовать в опросах
    Вы не можете прикреплять файлы к сообщениям
    Вы не можете скачивать файлы