BitTorrentTracker PerecTracker.org
BitTorrentTracker PerecTracker.org
    
Регистрация  ·  Вход
 
 · 
Забыли пароль?

  • Челопук / Spider-Man [2005 г., смешной перевод, комедия, пародия, BDRip 1080p] [ТО Гонфильм] AVO

    Ответить на тему
     
    Автор Сообщение

    rechyn

    Создавать темы 26-Дек-2015 10:15

           

    [Цитировать]

    Челопук / Spider-Man (2005) BDRip
    Год выпуска: 2005
    Страна: США
    Жанр: пародия, комедия, смешной перевод
    Продолжительность: 01:56:23
    Перевод: любительский одноголосый (смешной перевод ТО Гонфильм)
    Режиссер: Сэм Рэйми, Oxid
    В ролях: Тоби Магуайр, Уиллем Дефо, Кирстен Данст, Джеймс Франко, Клифф Робертсон, Розмари Харрис, Дж.К. Симмонс, Джо Манганьелло, Майкл Пападжон, Билл Нанн
    Описание:
    Смешной перевод фильма "Человек-Паук".
    Петя Пяточкин, простой безработный студент, однажды становится жертвой нового слова в современной медицине. Кислотного цвета от напичканых в него химикатов радиоуправляемый паук-мутазвон прокусывает Пяточкину запястье. Вследствие непонятных химических реакций, Пяточкин приобретает способность липнуть к стенкам и особам женского пола (особенно к симпатичной проститутке Марусе Киловатсон). А в это время сильно страдающий алкоголизмом ученый Борман фон Озборн сам становится жертвой сверхсекретного проекта «Зеленая Горячка». И на мирных улицах уездного городка Козюльска начинают действовать сразу два безбашенных мутазвона: Челопук — он же Петя Пяточкин, и отмороженный хулиган по кличке Goblin. Кто кого заломает впоследствии, догадаться нетрудно… Фильм озвучен переводческой командой «Гонфильм» по заказу «Держиморда Филмс», соответственно, в фильме присутствуют приколы обоих мэтров современного прикольного перевода.
    Семпл
    Примечание автора раздачи:
    Релиз от Альянса Вольных Переводчиков.
    HD-версию собрал MrClon.
    Официальный сайт
    Файл
    Контейнер: mp4
    Качество: BDRip 1080p
    Видео: MPEG-4 AVC, 1280x720, 5 000 kbps, 23.976 fps
    Звук: 48 kHz, AAC, 2 ch, ~372 kbps avg

    MediaInfo

    General
    Complete name : F:\___фильмы\Chelopuk.BDRip.2005.mp4
    Format : MPEG-4
    Format profile : Base Media
    Codec ID : isom
    File size : 4.37 GiB
    Duration : 1h 56mn
    Overall bit rate : 5 381 Kbps
    Writing application : Lavf54.20.4
    Video
    ID : 1
    Format : AVC
    Format/Info : Advanced Video Codec
    Format profile : High@L3.1
    Format settings, CABAC : Yes
    Format settings, ReFrames : 4 frames
    Codec ID : avc1
    Codec ID/Info : Advanced Video Coding
    Duration : 1h 56mn
    Bit rate mode : Variable
    Bit rate : 5 000 Kbps
    Width : 1 280 pixels
    Height : 720 pixels
    Display aspect ratio : 16:9
    Frame rate mode : Constant
    Frame rate : 23.976 fps
    Resolution : 24 bits
    Colorimetry : 4:2:0
    Scan type : Progressive
    Bits/(Pixel*Frame) : 0.226
    Stream size : 4.06 GiB (93%)
    Writing library : x264 core 142 r2389 956c8d8
    Encoding settings : cabac=1 / ref=3 / deblock=1:0:0 / analyse=0x3:0x113 / me=hex / subme=7 / psy=1 / psy_rd=1,00:0,00 / mixed_ref=1 / me_range=16 / chroma_me=0 / trellis=1 / 8x8dct=1 / cqm=0 / deadzone=21,11 / fast_pskip=1 / chroma_qp_offset=-2 / threads=1 / lookahead_threads=1 / sliced_threads=0 / nr=0 / decimate=1 / interlaced=0 / bluray_compat=0 / constrained_intra=0 / bframes=3 / b_pyramid=2 / b_adapt=1 / b_bias=0 / direct=1 / weightb=1 / open_gop=0 / weightp=2 / keyint=250 / keyint_min=23 / scenecut=40 / intra_refresh=0 / rc_lookahead=40 / rc=2pass / mbtree=1 / bitrate=5000 / ratetol=1,0 / qcomp=0,60 / qpmin=10 / qpmax=51 / qpstep=4 / cplxblur=20,0 / qblur=0,5 / ip_ratio=1,25 / aq=1:1,00
    Audio
    ID : 2
    Format : AAC
    Format/Info : Advanced Audio Codec
    Format version : Version 4
    Format profile : LC
    Format settings, SBR : No
    Codec ID : 40
    Duration : 1h 56mn
    Bit rate mode : Variable
    Bit rate : 372 Kbps
    Channel(s) : 2 channels
    Channel positions : L R
    Sampling rate : 48.0 KHz
    Resolution : 16 bits
    Stream size : 310 MiB (7%)

    Скриншоты

    Релиз от:
    Скачать .torrent

    Скачать торрент-файл бесплатно и на максимальной скорости!

    Как скачивать? · Что такое торрент? · Рейтинг и ограничения

    !ВНИМАНИЕ!
    Сайт не распространяет и не хранит электронные версии произведений, а занимается лишь лишь предоставлением доступа к создаваемому пользователями каталогу ссылок на торрент-файлы, которые содержат только списки хеш-сумм, убедительная просьба с жалобами обращаться напрямую к пользователю. Файлы для обмена на трекере предоставлены пользователями сайта, и администрация не несёт ответственности за их содержание. Просьба не заливать файлы, защищенные авторскими правами, а также файлы нелегального содержания!


    _________________
    [Профиль] [ЛС]
    Показать сообщения:    
    Ответить на тему

    Текущее время: Сегодня, в 04:24

    Часовой пояс: GMT + 2



    Вы не можете начинать темы
    Вы не можете отвечать на сообщения
    Вы не можете редактировать свои сообщения
    Вы не можете удалять свои сообщения
    Вы не можете голосовать в опросах
    Вы не можете прикреплять файлы к сообщениям
    Вы не можете скачивать файлы