BitTorrentTracker PerecTracker.org
BitTorrentTracker PerecTracker.org
    
Регистрация  ·  Вход
 
 · 
Забыли пароль?

  • Квартал и его команда, 10 лет юмора / Квартал і його команда, Выпуск 1-6 из 6 (Студия "95 квартал") [2014, Документальный, Биография, WEBRip]

    Ответить на тему
     
    Автор Сообщение

    rechyn

    Создавать темы 26-Дек-2015 10:10

           

    [Цитировать]

    Квартал и его команда, 10 лет юмора / Квартал і його команда
    Дата/Год выпуска: 2014
    Страна: Украина
    Жанр: Документальный, Биография
    Продолжительность: ~00:50:00
    Перевод: Не требуется
    Русские субтитры: нет
    Оригинальная аудиодорожка: русский
    Режиссер: Студия "95 квартал"
    Телеканал: 1+1
    Описание: 6-серийный документальный фильм, посвященный членам "Квартала-95" и приурочен к десятилетию коллектива. "Это будет 6-серийная документальная линейка о всех" персонажей ", связанных со" Студией Квартал-95 ". Мы начали съемки полтора года назад, теперь это все наконец на стадии монтажа. И хотя громко праздновать 10 лет в таких условиях, как сейчас, мы не будем, но все подготовленные проекты покажем ", - поделился планами Владимир Зеленский.
    Сейчас зрителям "1+1" настроение улучшают "кварталовских" "ЧистоNews", "Мульти Барбара", "Вечерний Квартал", "Вечерний Киев", "Сказочеая Русь" и "Рассмеши комика".
    Доп. информация: В ролях: Владимир Зеленский, Юрий Крапов, Елена Кравец, Евгений Кошевой, Сергей Казанин, Александр Пикалов, Юрий Корявченков
    Сэмпл: https://cloud.mail.ru/public/9b2c877a1012/%D0%9A%D0...Rip.by.simka.avi
    качество: WEBRip (исходник 1080р-youtube)
    формат: AVI
    Видео: XviD, 720x400, 25.00fps, ~1900 Кбит/сек
    Аудио: MP3, 48000Hz, stereo, 192 Кбит/сек

    MediaInfo

    Общее
    Полное имя : U:\ТВ-Шоу\Квартал і його команда, 10 лет (2014) WEB-DLRip\Квартал и его команда, 10 лет юмора.Vypusk.1.(2014.10.11).2014.XviD.WEB-DLRip.by.simka.avi
    Формат : AVI
    Формат/Информация : Audio Video Interleave
    Размер файла : 748 Мбайт
    Продолжительность : 50 м.
    Общий поток : 2077 Кбит/сек
    Программа кодирования : VirtualDubMod 1.5.10.3 | www.virtualdub-fr.org || (build 2550/release)
    Библиотека кодирования : VirtualDubMod build 2550/release
    Видео
    Идентификатор : 0
    Формат : MPEG-4 Visual
    Профиль формата : Advanced Simple@L5
    Параметр BVOP формата : 1
    Параметр QPel формата : Нет
    Параметр GMC формата : Без точки перехода
    Параметр матрицы формата : Default (H.263)
    Идентификатор кодека : XVID
    Идентификатор кодека/Подсказка : XviD
    Продолжительность : 50 м.
    Битрейт : 1875 Кбит/сек
    Ширина : 720 пикселей
    Высота : 400 пикселей
    Соотношение сторон : 16:9
    Частота кадров : 25,000 кадров/сек
    Цветовое пространство : YUV
    Субдискретизация насыщенности : 4:2:0
    Битовая глубина : 8 бит
    Тип развёртки : Прогрессивная
    Метод сжатия : С потерями
    Бит/(Пиксели*Кадры) : 0.260
    Размер потока : 676 Мбайт (90%)
    Библиотека кодирования : XviD 1.2.1 (UTC 2008-12-04)
    Аудио
    Идентификатор : 1
    Формат : MPEG Audio
    Версия формата : Version 1
    Профиль формата : Layer 3
    Режим : Joint stereo
    Идентификатор кодека : 55
    Идентификатор кодека/Подсказка : MP3
    Продолжительность : 50 м.
    Вид битрейта : Постоянный
    Битрейт : 192 Кбит/сек
    Каналы : 2 канала
    Частота : 44,1 КГц
    Метод сжатия : С потерями
    Размер потока : 69,2 Мбайт (9%)
    Выравнивание : Разделение по промежуткам
    Продолжительность промежутка : 40 мс. (1,00 видеокадр)
    Время предзагрузки промежутка : 500 мс.
    Библиотека кодирования : LAME3.99r
    Настройки программы : -m j -V 4 -q 2 -lowpass 18.6 -b 192

    Выпуск 1 от 11.10.2014

    Выпуск 2 от 25.10.2014

    Выпуск 3 от 01.11.2014

    Выпуск 4 от 08.11.2014

    Выпуск 5 от 15.11.2014

    Выпуск 6 от 16.11.2014

    -
    Скачать .torrent

    Скачать торрент-файл бесплатно и на максимальной скорости!

    Как скачивать? · Что такое торрент? · Рейтинг и ограничения

    !ВНИМАНИЕ!
    Сайт не распространяет и не хранит электронные версии произведений, а занимается лишь лишь предоставлением доступа к создаваемому пользователями каталогу ссылок на торрент-файлы, которые содержат только списки хеш-сумм, убедительная просьба с жалобами обращаться напрямую к пользователю. Файлы для обмена на трекере предоставлены пользователями сайта, и администрация не несёт ответственности за их содержание. Просьба не заливать файлы, защищенные авторскими правами, а также файлы нелегального содержания!


    _________________
    [Профиль] [ЛС]
    Показать сообщения:    
    Ответить на тему

    Текущее время: Сегодня, в 22:38

    Часовой пояс: GMT + 2



    Вы не можете начинать темы
    Вы не можете отвечать на сообщения
    Вы не можете редактировать свои сообщения
    Вы не можете удалять свои сообщения
    Вы не можете голосовать в опросах
    Вы не можете прикреплять файлы к сообщениям
    Вы не можете скачивать файлы