BitTorrentTracker PerecTracker.org
BitTorrentTracker PerecTracker.org
    
Регистрация  ·  Вход
 
 · 
Забыли пароль?

  • Мульти Барбара, Сезон 1; Серии 1-20 из 20 (Студия Квартал-95) [2014, Мультсериал, комедия, SATRip]

    Ответить на тему
     
    Автор Сообщение

    rechyn

    Создавать темы 26-Дек-2015 09:55

           

    [Цитировать]

    Мульти Барбара
    Дата/Год выпуска: 2014
    Страна: Украина
    Жанр: Мультсериал, комедия
    Продолжительность: ~ 00:27:00
    Перевод: Не требуется
    Оригинальная аудиодорожка: русский
    Режиссер: Студия Квартал-95
    В ролях: Владимир Зеленский, Юрий Крапов, Елена Кравец, Евгений Кошевой, Александр Пикалов, Юрий Корявченков, Аркадий Лапухин
    Телеканал: 1+1
    Описание: Зрители впервые увидят любимых героев в исполнении актеров "Квартала 95" в формате анимационных персонажей. Новый проект "Квартала 95". Герои любимого всеми "Вечернего Квартала", чьи реплики цитируют по всей стране, станут ... мультяшными! Веселых гаишников, "кварталовских" семью, вездесущих туристов, соседей и кумовьев студия "Квартал 95" решили анимировать в своем новом проекте под названием "Мульти Барбара". С помощью анимации герои "Вечернего Квартала" в исполнении актеров "Квартала 95" оживают в новых для себя образах. В каждом выпуске мультипликационного сериала зрители смогут увидеть несколько веселых и интересных историй.
    Доп. информация: В честь 10-летия "Квартала" про Зеленского и Ко выпустили мультфильм
    Сэмпл: https://cloud.mail.ru/public/01064a73da67/%D0%9C%D1...%D1%8C%D1%82.avi
    качество: SATRip
    формат: AVI
    Видео: XviD, ~ 1800 Кбит/с, 720x416
    Аудио: MP3, 2 ch, 192 Кбит/с

    Список выпусков/серий





    -

    MediaInfo

    бщее
    Полное имя : U:\Сериалы (2014)\Мульти Барбара (2014)\Мульти Барбара.(01.seriya).2014.XviD.SATRip.by.simka.avi
    Формат : AVI
    Формат/Информация : Audio Video Interleave
    Размер файла : 400 Мбайт
    Продолжительность : 26 м.
    Общий поток : 2138 Кбит/сек
    Программа кодирования : VirtualDubMod 1.5.10.3 | www.virtualdub-fr.org || (build 2550/release)
    Библиотека кодирования : VirtualDubMod build 2550/release
    Видео
    Идентификатор : 0
    Формат : MPEG-4 Visual
    Профиль формата : Advanced Simple@L5
    Параметр BVOP формата : 1
    Параметр QPel формата : Нет
    Параметр GMC формата : Без точки перехода
    Параметр матрицы формата : Default (MPEG)
    Идентификатор кодека : XVID
    Идентификатор кодека/Подсказка : XviD
    Продолжительность : 26 м.
    Битрейт : 1936 Кбит/сек
    Ширина : 720 пикселей
    Высота : 416 пикселей
    Соотношение сторон : 1,731
    Частота кадров : 25,000 кадров/сек
    Цветовое пространство : YUV
    Субдискретизация насыщенности : 4:2:0
    Битовая глубина : 8 бит
    Тип развёртки : Прогрессивная
    Метод сжатия : С потерями
    Бит/(Пиксели*Кадры) : 0.259
    Размер потока : 362 Мбайт (91%)
    Библиотека кодирования : XviD 1.2.1 (UTC 2008-12-04)
    Аудио
    Идентификатор : 1
    Формат : MPEG Audio
    Версия формата : Version 1
    Профиль формата : Layer 3
    Режим : Joint stereo
    Расширение режима : MS Stereo
    Идентификатор кодека : 55
    Идентификатор кодека/Подсказка : MP3
    Продолжительность : 26 м.
    Вид битрейта : Постоянный
    Битрейт : 192 Кбит/сек
    Каналы : 2 канала
    Частота : 48,0 КГц
    Метод сжатия : С потерями
    Размер потока : 36,0 Мбайт (9%)
    Выравнивание : Соединение по промежуткам
    Продолжительность промежутка : 40 мс. (1,00 видеокадр)
    Время предзагрузки промежутка : 504 мс.
    Библиотека кодирования : LAME3.99r
    Настройки программы : -m j -V 4 -q 2 -lowpass 18.6 -b 192

    Скриншоты

    -
    Скачать .torrent

    Скачать торрент-файл бесплатно и на максимальной скорости!

    Как скачивать? · Что такое торрент? · Рейтинг и ограничения

    !ВНИМАНИЕ!
    Сайт не распространяет и не хранит электронные версии произведений, а занимается лишь лишь предоставлением доступа к создаваемому пользователями каталогу ссылок на торрент-файлы, которые содержат только списки хеш-сумм, убедительная просьба с жалобами обращаться напрямую к пользователю. Файлы для обмена на трекере предоставлены пользователями сайта, и администрация не несёт ответственности за их содержание. Просьба не заливать файлы, защищенные авторскими правами, а также файлы нелегального содержания!


    _________________
    [Профиль] [ЛС]
    Показать сообщения:    
    Ответить на тему

    Текущее время: Сегодня, в 02:06

    Часовой пояс: GMT + 2



    Вы не можете начинать темы
    Вы не можете отвечать на сообщения
    Вы не можете редактировать свои сообщения
    Вы не можете удалять свои сообщения
    Вы не можете голосовать в опросах
    Вы не можете прикреплять файлы к сообщениям
    Вы не можете скачивать файлы