BitTorrentTracker PerecTracker.org
BitTorrentTracker PerecTracker.org
    
Регистрация  ·  Вход
 
 · 
Забыли пароль?

  • Алхимик. Эликсир Фауста / Серии: 1-12 из 12 (Александр Муратов (II)) [2015, детектив, мелодрама, мистика, SATRip]

    Ответить на тему
     
    Автор Сообщение

    rechyn

    Создавать темы 26-Дек-2015 09:25

           

    [Цитировать]

    Алхимик (Эликсир Фауста)
    Год выпуска: 2015
    Производство: киностудия “Фаворит-фильм”
    Жанр: Детектив, мелодрама, мистика
    Продолжительность: 00:54:00
    Субтитры: Нет
    Режиссёр: Александр Муратов
    В ролях: Игорь Петренко, Светлана Иванова, Виктор Раков, Евгения Добровольская, Юлия Рутберг, Павел Баршак, Фёдор Лавров, Владимир Ерёмин, Сергей Степанченко, Игорь Ясулович, Юрий Беляев, Андрей Ильин, Борис Щербаков, Артём Ткаченко, Владимир Коренев, Павел Меленчук, Александр Сирин, Елена Радевич, Татьяна Абрамова, Алексей Шейнин, Вячеслав Жолобов, Артем Фадеев, Владимир Гостюхин, Кирилл Жандаров
    Описание: Захватывающая история про алхимиков, чудодейственные эликсиры, тайные общества и вечную тягу читателей и зрителей к непознанному.
    В сюжете сериала «Алхимик» заложена удивительная история о алхимиках и их тайных сообществах, о магических и чудотворных эликсирах, их свойствах – и опасностях, связанных с их использованием.
    -
    Доп. информация: Реклама отсутствует!
    -
    Все раздачи сериала: http://perectracker.org/tracker.php?f=9&nm=Алхимик
    Сэмпл: https://yadi.sk/d/cUlC9h7cesTRN
    Качество: SATRip
    Формат: AVI
    Видео кодек: XviD
    Аудио кодек: MP3
    Видео: 720x384, 25 fps, XviD, ~1400 kbps, 0.203 bit/pixel
    Аудио: 48 kHz, MPEG Layer 3, 2 ch, 192 kbps

    MI

    Общее
    Полное имя : U:\Сериалы (2015)\Алхимик (Эликсир Фауста) (2015)\Алхимик. Эликсир Фауста.(01.seriya).2015.XviD.SATRip.by.simka.avi
    Формат : AVI
    Формат/Информация : Audio Video Interleave
    Размер файла : 605 Мбайт
    Продолжительность : 52 м.
    Общий поток : 1602 Кбит/сек
    Программа кодирования : VirtualDubModRus 1.5.10.2 (build 2542/release)
    Библиотека кодирования : VirtualDubMod build 2542/release
    Видео
    Идентификатор : 0
    Формат : MPEG-4 Visual
    Профиль формата : Advanced Simple@L5
    Параметр BVOP формата : 1
    Параметр QPel формата : Нет
    Параметр GMC формата : Без точки перехода
    Параметр матрицы формата : Default (MPEG)
    Идентификатор кодека : XVID
    Идентификатор кодека/Подсказка : XviD
    Продолжительность : 52 м.
    Битрейт : 1400 Кбит/сек
    Ширина : 720 пикселей
    Высота : 384 пикселя
    Соотношение сторон : 1,85:1
    Частота кадров : 25,000 кадров/сек
    Цветовое пространство : YUV
    Субдискретизация насыщенности : 4:2:0
    Битовая глубина : 8 бит
    Тип развёртки : Прогрессивная
    Метод сжатия : С потерями
    Бит/(Пиксели*Кадры) : 0.203
    Размер потока : 529 Мбайт (87%)
    Библиотека кодирования : XviD 1.2.1 (UTC 2008-12-04)
    Аудио
    Идентификатор : 1
    Формат : MPEG Audio
    Версия формата : Version 1
    Профиль формата : Layer 3
    Идентификатор кодека : 55
    Идентификатор кодека/Подсказка : MP3
    Продолжительность : 52 м.
    Вид битрейта : Постоянный
    Битрейт : 192 Кбит/сек
    Каналы : 2 канала
    Частота : 48,0 КГц
    Метод сжатия : С потерями
    Размер потока : 72,6 Мбайт (12%)
    Выравнивание : Соединение по промежуткам
    Продолжительность промежутка : 40 мс. (1,00 видеокадр)
    Время предзагрузки промежутка : 504 мс.
    Библиотека кодирования : LAME3.99r
    Настройки программы : -m s -V 4 -q 2 -lowpass 18.6 -b 192

    Скриншоты

    Скачать .torrent

    Скачать торрент-файл бесплатно и на максимальной скорости!

    Как скачивать? · Что такое торрент? · Рейтинг и ограничения

    !ВНИМАНИЕ!
    Сайт не распространяет и не хранит электронные версии произведений, а занимается лишь лишь предоставлением доступа к создаваемому пользователями каталогу ссылок на торрент-файлы, которые содержат только списки хеш-сумм, убедительная просьба с жалобами обращаться напрямую к пользователю. Файлы для обмена на трекере предоставлены пользователями сайта, и администрация не несёт ответственности за их содержание. Просьба не заливать файлы, защищенные авторскими правами, а также файлы нелегального содержания!


    _________________
    [Профиль] [ЛС]
    Показать сообщения:    
    Ответить на тему

    Текущее время: Сегодня, в 20:14

    Часовой пояс: GMT + 2



    Вы не можете начинать темы
    Вы не можете отвечать на сообщения
    Вы не можете редактировать свои сообщения
    Вы не можете удалять свои сообщения
    Вы не можете голосовать в опросах
    Вы не можете прикреплять файлы к сообщениям
    Вы не можете скачивать файлы