BitTorrentTracker PerecTracker.org
BitTorrentTracker PerecTracker.org
    
Регистрация  ·  Вход
 
 · 
Забыли пароль?

  • Трюкач / Серии: 1-12 из 12 (Сергей Щербин) [2015, Трюковая мелодрама, SATRip]

    Ответить на тему
     
    Автор Сообщение

    rechyn

    Создавать темы 26-Дек-2015 09:16

           

    [Цитировать]

    Трюкач
    Год выпуска: 2015
    Производство: Киностудия "Фаворит-фильм"
    Жанр: Трюковая мелодрама
    Продолжительность: 00:48:00
    Субтитры: Нет
    Режиссёр: Сергей Щербин
    В ролях: Сергей Стрельников, Леонид Бичевин, Марина Коняшкина, Юлия Галкина, Виктор Добронравов, Антон Хабаров, Дмитрий Поднозов, Нино Нинидзе, София Горелашвили, Малхаз Абуладзе, Георгий (Гия) Бурджанадзе, Антон Феоктистов, Владимир Коренев, Валерий Афанасьев, Заза Чантурия, Олег Флеер, Жорж Девдариани, Андрей Терентьев, Светлана Кутузова-Терентьева, Леонид Коронов
    Описание: «Трюкач» - это сага о самых ярких, необыкновенных, рисковых и мужественных людях, работающих в кино: о каскадерах.
    История начинается в 1958 году. Санька – Сан Саныч, бесшабашный сын Героя Советского Союза генерала-лейтенанта Богатырева не знает, кем хочет стать. Его привлекают скорость и риск. Он лучший мотогонщик в своем районе. Но не желает подчиняться общепринятым правилам и нормам и категорически нигде не хочет учиться после школы. В сердцах отец отправляет Сан Саныча служить в танковых войсках. Сан Саныч быстро становится лучшим водителем танка и случайно попадает на съемки фильма о войне. Здесь его замечает лучший постановщик трюков Мосфильма Олег Фомин. Оценив водительское мастерство Сан Саныча, Фомин приглашает его после службы работать к себе, в бригаду трюкачей. Так Сан Саныч становится трюкачом и, впоследствии, настоящей легендой Мосфильма. Работа трюкача дает ему счастье творчества, первую любовь, настоящих друзей.
    -
    Доп. информация: Реклама отсутствует!
    -
    Все раздачи сериала: http://perectracker.org/tracker.php?f=9&nm=Трюкач
    Сэмпл: https://cloud.mail.ru/public/be22a00339f1/%D0%A2%D1...Rip.by.simka.avi
    Качество: SATRip
    Формат: AVI
    Видео кодек: XviD
    Аудио кодек: MP3
    Видео: 720x384, 25 fps, XviD, ~1400 kbps, 0.202 bit/pixel
    Аудио: 48 kHz, MPEG Layer 3, 2 ch, 192 kbps

    MI

    Общее
    Полное имя : U:\Сериалы (2015)\Трюкач (2014)\Трюкач.(01.seriya).2015.XviD.SATRip.by.simka.avi
    Формат : AVI
    Формат/Информация : Audio Video Interleave
    Размер файла : 553 Мбайт
    Продолжительность : 48 м.
    Общий поток : 1601 Кбит/сек
    Программа кодирования : VirtualDubModRus 1.5.10.2 (build 2542/release)
    Библиотека кодирования : VirtualDubMod build 2542/release
    Видео
    Идентификатор : 0
    Формат : MPEG-4 Visual
    Профиль формата : Advanced Simple@L5
    Параметр BVOP формата : 1
    Параметр QPel формата : Нет
    Параметр GMC формата : Без точки перехода
    Параметр матрицы формата : Default (MPEG)
    Идентификатор кодека : XVID
    Идентификатор кодека/Подсказка : XviD
    Продолжительность : 48 м.
    Битрейт : 1399 Кбит/сек
    Ширина : 720 пикселей
    Высота : 384 пикселя
    Соотношение сторон : 1,85:1
    Частота кадров : 25,000 кадров/сек
    Цветовое пространство : YUV
    Субдискретизация насыщенности : 4:2:0
    Битовая глубина : 8 бит
    Тип развёртки : Прогрессивная
    Метод сжатия : С потерями
    Бит/(Пиксели*Кадры) : 0.202
    Размер потока : 483 Мбайт (87%)
    Библиотека кодирования : XviD 1.2.1 (UTC 2008-12-04)
    Аудио
    Идентификатор : 1
    Формат : MPEG Audio
    Версия формата : Version 1
    Профиль формата : Layer 3
    Идентификатор кодека : 55
    Идентификатор кодека/Подсказка : MP3
    Продолжительность : 48 м.
    Вид битрейта : Постоянный
    Битрейт : 192 Кбит/сек
    Каналы : 2 канала
    Частота : 48,0 КГц
    Метод сжатия : С потерями
    Размер потока : 66,4 Мбайт (12%)
    Выравнивание : Соединение по промежуткам
    Продолжительность промежутка : 40 мс. (1,00 видеокадр)
    Время предзагрузки промежутка : 504 мс.
    Библиотека кодирования : LAME3.99r
    Настройки программы : -m s -V 4 -q 2 -lowpass 18.6 -b 192

    Скриншоты

    Скачать .torrent

    Скачать торрент-файл бесплатно и на максимальной скорости!

    Как скачивать? · Что такое торрент? · Рейтинг и ограничения

    !ВНИМАНИЕ!
    Сайт не распространяет и не хранит электронные версии произведений, а занимается лишь лишь предоставлением доступа к создаваемому пользователями каталогу ссылок на торрент-файлы, которые содержат только списки хеш-сумм, убедительная просьба с жалобами обращаться напрямую к пользователю. Файлы для обмена на трекере предоставлены пользователями сайта, и администрация не несёт ответственности за их содержание. Просьба не заливать файлы, защищенные авторскими правами, а также файлы нелегального содержания!


    _________________
    [Профиль] [ЛС]
    Показать сообщения:    
    Ответить на тему

    Текущее время: Сегодня, в 00:24

    Часовой пояс: GMT + 2



    Вы не можете начинать темы
    Вы не можете отвечать на сообщения
    Вы не можете редактировать свои сообщения
    Вы не можете удалять свои сообщения
    Вы не можете голосовать в опросах
    Вы не можете прикреплять файлы к сообщениям
    Вы не можете скачивать файлы