BitTorrentTracker PerecTracker.org
BitTorrentTracker PerecTracker.org
    
Регистрация  ·  Вход
 
 · 
Забыли пароль?

  • Шерлох (Шерлок) / Серии 1-12 из 12 + Пилотный эпизод (Борис Шефир) [2015, Комедия, пародия, WEB-DLRip]

    Ответить на тему
     
    Автор Сообщение

    rechyn

    Создавать темы 26-Дек-2015 08:52

           

    [Цитировать]

    Шерлох (Шерлок)
    Дата/Год выпуска: 2015
    Страна: Украина
    Жанр: Комедия, пародия
    Продолжительность: ~ 00:26:00
    Перевод: Не требуется
    Русские субтитры: нет
    Оригинальная аудиодорожка: русский
    Режиссер: Борис Шефир
    В ролях: Евгений Кошевой, Юрий Крапов, Степан Казанин, Елена Кравец, Алена Алымава, Юрий Корявченков
    Телеканал: 1+1, Студия Квартал 95
    Описание: Сериал-пародия от Студии Квартал-95. Известный детектив Шерлок Холмс и его помощник Доктор Ватсон разбираются в самых запутанных преступлениях. Британский сериал Шерлок о знаменитом сыщике не оставил равнодушным никого из тех, кто посмотрел хотя бы одну его серию. А пока британцы неспешно снимают очередной куцый сезон с Бенедиктом Камбербэтчем и Мартином Фрименом в главных ролях, студия Квартал 95 вдохнула новую жизнь в героев всемирно известного детектива.
    Доп. информация: Но если прошлой осенью "кварталовцы" органичились лишь небольшой пародией на сериал в программе Вечерний Киев, то уже этой осенью зрителей ждет целый пародийный сериал из 12 серий.
    Сэмпл: https://cloud.mail.ru/public/5GTCChBA9FiT/%D0%A8%D0...Rip.by.simka.avi
    качество: WEB-DLRip
    формат: AVI
    Видео: 720x400, 25 fps, XviD, ~1800 kbps, 0.229 bit/pixel
    Аудио: 44.1 kHz, MPEG Layer 3, 2 ch, 192 kbps

    Список выпусков/серий

    Серия 00: Знакомство
    Серия 01: Последнее дело Шерлока
    Серия 02: Докторская любовь
    Серия 03: Братская помощь
    Серия 04: Кошка Баскервилей
    Серия 05: Корона Британской Империи
    Серия 06: Убийственная свадьба
    Серия 07: Формула Любви
    Серия 08: Голубой Карбункул
    Серия 09: Ядерному взрыву - Нет!
    Серия 10: Шерлок Холмс и принц-полукровка
    Серия 11: Холмс и Адлер
    Серия 12: Финальная схватка

    MediaInfo

    ОбщееПолное имя : I:\001\Шерлох (Шерлок) (2015)\Шерлох (Шерлок).(01.seriya).2015.XviD.WEB-DLRip.by.simka.aviФормат : AVIФормат/Информация : Audio Video InterleaveРазмер файла : 350 МбайтПродолжительность : 23 м.Общий поток : 2075 Кбит/секПрограмма кодирования : VirtualDubMod 1.5.10.3 | www.virtualdub-fr.org || (build 2550/release)Библиотека кодирования : VirtualDubMod build 2550/release
    ВидеоИдентификатор : 0Формат : MPEG-4 VisualПрофиль формата : Advanced Simple@L5Параметр BVOP формата : 1Параметр QPel формата : НетПараметр GMC формата : Без точки переходаПараметр матрицы формата : Default (MPEG)Идентификатор кодека : XVIDИдентификатор кодека/Подсказка : XviDПродолжительность : 23 м.Битрейт : 1873 Кбит/секШирина : 720 пикселейВысота : 400 пикселейСоотношение сторон : 16:9Частота кадров : 25,000 кадров/секЦветовое пространство : YUVСубдискретизация насыщенности : 4:2:0Битовая глубина : 8 битТип развёртки : ПрогрессивнаяМетод сжатия : С потерямиБит/(Пиксели*Кадры) : 0.260Размер потока : 316 Мбайт (90%)Библиотека кодирования : XviD 1.2.1 (UTC 2008-12-04)
    АудиоИдентификатор : 1Формат : MPEG AudioВерсия формата : Version 1Профиль формата : Layer 3Режим : Joint stereoИдентификатор кодека : 55Идентификатор кодека/Подсказка : MP3Продолжительность : 23 м.Вид битрейта : ПостоянныйБитрейт : 192 Кбит/секКаналы : 2 каналаЧастота : 44,1 КГцМетод сжатия : С потерямиРазмер потока : 32,4 Мбайт (9%)Выравнивание : Разделение по промежуткамПродолжительность промежутка : 40 мс. (1,00 видеокадр)Время предзагрузки промежутка : 500 мс.Библиотека кодирования : LAME3.99rНастройки программы : -m j -V 4 -q 2 -lowpass 18.6 -b 192

    Скриншоты


    Внимание! Раздача ведётся путём добавления новых выпусков

    При каждом добавлении создаётся новый торрент. Чтобы начать докачку нового выпуска, пользователям необходимо сделать следующее:
    ● остановить скачивание;
    ● удалить старый торрент у себя из клиента (старые выпуски удалять не надо);
    ● скачать новый торрент и запустить его у себя в клиенте вместо старого, при этом указать клиенту путь в старую папку куда и должно происходить скачивание новых выпусков;
    ● ваш клиент при запуске должен произвести хеширование (проверку) старой папки (если не производит сам - помогите ему сделать это), и будет докачивать только те выпуски, которых у вас ещё нет. Старые выпуски при этом не удаляются, а продолжают раздаваться!,
    ● Eсли вы уже удалили старые выпуски, то предотвратить повторную закачку старых выпусков можно, отжав галочку в соответсвующих местах при запуске нового торрента.
    Добавлена 12-я серия!-
    Скачать .torrent

    Скачать торрент-файл бесплатно и на максимальной скорости!

    Как скачивать? · Что такое торрент? · Рейтинг и ограничения

    !ВНИМАНИЕ!
    Сайт не распространяет и не хранит электронные версии произведений, а занимается лишь лишь предоставлением доступа к создаваемому пользователями каталогу ссылок на торрент-файлы, которые содержат только списки хеш-сумм, убедительная просьба с жалобами обращаться напрямую к пользователю. Файлы для обмена на трекере предоставлены пользователями сайта, и администрация не несёт ответственности за их содержание. Просьба не заливать файлы, защищенные авторскими правами, а также файлы нелегального содержания!


    _________________


    Последний раз редактировалось: rechyn (2016-02-10 09:49), всего редактировалось 2 раз(а)
    [Профиль] [ЛС]

    Lucia

    Создавать темы 10-Фев-2016 01:23 (спустя 1 месяц 14 дней)

           

    [Цитировать]

    а когда добавите 12 серию?
    [Профиль] [ЛС]

    rechyn ®

    Создавать темы 10-Фев-2016 09:51 (спустя 8 часов)

           

    [Цитировать]

    Lucia, Добавлена 12-я серия!

    _________________
    [Профиль] [ЛС]
    Показать сообщения:    
    Ответить на тему

    Текущее время: Сегодня, в 22:33

    Часовой пояс: GMT + 2



    Вы не можете начинать темы
    Вы не можете отвечать на сообщения
    Вы не можете редактировать свои сообщения
    Вы не можете удалять свои сообщения
    Вы не можете голосовать в опросах
    Вы не можете прикреплять файлы к сообщениям
    Вы не можете скачивать файлы