BitTorrentTracker PerecTracker.org
BitTorrentTracker PerecTracker.org
    
Регистрация  ·  Вход
 
 · 
Забыли пароль?

  • Другой мир / Another World (Эйтан Реувин / Eitan Reuven) [2014, Израиль, ужасы, фантастика, боевик, WEB-DLRip-AVC] DVO + Original Eng

    Ответить на тему
     
    Автор Сообщение

    rechyn

    Создавать темы 26-Дек-2015 07:00

           

    [Цитировать]

    Другой мир / Another World
    Страна: Израиль
    Жанр: ужасы, фантастика, боевик
    Год выпуска: 2014
    Продолжительность: 01:39:46-Перевод: Любительский (двухголосный закадровый)
    Cубтитры: нет
    Оригинальная аудиодорожка: английский-Режиссер: Эйтан Реувин / Eitan Reuven-В ролях: Ларри Батчинс, Зэк Коэн, Сюзанна Гшвендтнер, Давина Кевелсон, Давид Лавенски, Карл МакКристал...-Описание: В пост-апокалиптическом будущем, во время создания биологического оружия, что-то пошло не так, и четырем выжившим приходится защищать себя от «зараженных» — бессмысленных убийц. Они борются, чтобы выжить и понять, что же на самом деле произошло.-Сэмпл: http://sendfile.su/1186832
    Качество видео: WEB-DLRip-AVC
    Формат видео: MKV
    Видео: MPEG4/AVC, 1136х608, 1,85:1, 24,000 кадра/сек, 2600 Кбит/сек
    Аудио #1: AC-3, 48,0 КГц, 192 Кбит/сек, 2 канала Front: L R, русский
    Аудио #2: AC-3, 48,0 КГц, 384 Кбит/сек, 6 каналов Front: L C R, Side: L R, LFE, English

    MediaInfo

    Формат : Matroska
    Версия формата : Version 2
    Размер файла : 2,21 Гбайт
    Продолжительность : 1 ч. 39 м.
    Общий поток : 3171 Кбит/сек
    Дата кодирования : UTC 2015-12-25 12:54:18
    Программа кодирования : mkvmerge v3.3.0 ('Language') built on Mar 24 2010 14:59:24
    Библиотека кодирования : libebml v0.8.0 + libmatroska v0.9.0
    Видео
    Идентификатор : 1
    Формат : AVC
    Формат/Информация : Advanced Video Codec
    Профиль формата : High@L4.1
    Параметр CABAC формата : Да
    Параметр ReFrames формата : 9 кадров
    Идентификатор кодека : V_MPEG4/ISO/AVC
    Продолжительность : 1 ч. 39 м.
    Битрейт : 2600 Кбит/сек
    Ширина : 1136 пикселей
    Высота : 608 пикселей
    Соотношение сторон : 1,85:1
    Режим частоты кадров : Постоянный
    Частота кадров : 24,000 кадра/сек
    Цветовое пространство : YUV
    Субдискретизация насыщенности : 4:2:0
    Битовая глубина : 8 бит
    Тип развёртки : Прогрессивная
    Бит/(Пиксели*Кадры) : 0.157
    Размер потока : 1,76 Гбайт (80%)
    Библиотека кодирования : x264 core 92 r1510 33d382a
    Настройки программы : cabac=1 / ref=9 / deblock=1:-1:-1 / analyse=0x3:0x133 / me=umh / subme=9 / psy=1 / psy_rd=1.00:0.10 / mixed_ref=1 / me_range=26 / chroma_me=1 / trellis=2 / 8x8dct=1 / cqm=0 / deadzone=21,11 / fast_pskip=0 / chroma_qp_offset=-3 / threads=6 / sliced_threads=0 / nr=0 / decimate=1 / interlaced=0 / constrained_intra=0 / bframes=9 / b_pyramid=2 / b_adapt=2 / b_bias=0 / direct=3 / wpredb=1 / wpredp=2 / keyint=250 / keyint_min=25 / scenecut=40 / intra_refresh=0 / rc_lookahead=50 / rc=2pass / mbtree=1 / bitrate=2600 / ratetol=1.0 / qcomp=0.60 / qpmin=10 / qpmax=51 / qpstep=4 / cplxblur=20.0 / qblur=0.5 / ip_ratio=1.40 / aq=1:1.00
    Default : Да
    Forced : Нет
    Аудио #1
    Идентификатор : 2
    Формат : AC-3
    Формат/Информация : Audio Coding 3
    Расширение режима : CM (complete main)
    Параметр Endianness формата : Big
    Идентификатор кодека : A_AC3
    Продолжительность : 1 ч. 39 м.
    Вид битрейта : Постоянный
    Битрейт : 192 Кбит/сек
    Каналы : 2 канала
    Расположение каналов : Front: L R
    Частота : 48,0 КГц
    Частота кадров : 31,250 кадров/сек (1536 spf)
    Метод сжатия : С потерями
    Размер потока : 137 Мбайт (6%)
    Заголовок : русский
    Язык : Russian
    Default : Нет
    Forced : Нет
    Аудио #2
    Идентификатор : 3
    Формат : AC-3
    Формат/Информация : Audio Coding 3
    Расширение режима : CM (complete main)
    Параметр Endianness формата : Big
    Идентификатор кодека : A_AC3
    Продолжительность : 1 ч. 39 м.
    Вид битрейта : Постоянный
    Битрейт : 384 Кбит/сек
    Каналы : 6 каналов
    Расположение каналов : Front: L C R, Side: L R, LFE
    Частота : 48,0 КГц
    Частота кадров : 31,250 кадров/сек (1536 spf)
    Метод сжатия : С потерями
    Размер потока : 274 Мбайт (12%)
    Заголовок : original
    Язык : English
    Default : Нет
    Forced : Нет

    Скриншот c названием фильма

    Скриншоты





    Скачать .torrent

    Скачать торрент-файл бесплатно и на максимальной скорости!

    Как скачивать? · Что такое торрент? · Рейтинг и ограничения

    !ВНИМАНИЕ!
    Сайт не распространяет и не хранит электронные версии произведений, а занимается лишь лишь предоставлением доступа к создаваемому пользователями каталогу ссылок на торрент-файлы, которые содержат только списки хеш-сумм, убедительная просьба с жалобами обращаться напрямую к пользователю. Файлы для обмена на трекере предоставлены пользователями сайта, и администрация не несёт ответственности за их содержание. Просьба не заливать файлы, защищенные авторскими правами, а также файлы нелегального содержания!


    _________________
    [Профиль] [ЛС]
    Показать сообщения:    
    Ответить на тему

    Текущее время: Сегодня, в 20:52

    Часовой пояс: GMT + 2



    Вы не можете начинать темы
    Вы не можете отвечать на сообщения
    Вы не можете редактировать свои сообщения
    Вы не можете удалять свои сообщения
    Вы не можете голосовать в опросах
    Вы не можете прикреплять файлы к сообщениям
    Вы не можете скачивать файлы