BitTorrentTracker PerecTracker.org
BitTorrentTracker PerecTracker.org
    
Регистрация  ·  Вход
 
 · 
Забыли пароль?

  • Кэрол / Carol (Тодд Хейнс / Todd Haynes) [2015, Великобритания, США, Франция, Драма, романтика, DVDScreener] DVO

    Ответить на тему
     
    Автор Сообщение

    Light

    Создавать темы 25-Дек-2015 22:42

           

    [Цитировать]

    Кэрол / Carol (Тодд Хейнс / Todd Haynes) [2015, Великобритания, США, Франция, Драма, романтика, DVDScreener] DVO
    Страна: Великобритания, США, Франция
    Жанр: Драма, романтика
    Год выпуска: 2015
    Продолжительность: 01:58:40
    Перевод: Любительский (двухголосый закадровый)
    Cубтитры: нет
    Оригинальная аудиодорожка: нет
    Режиссер: Тодд Хейнс / Todd Haynes
    В ролях: Кейт Бланшетт, Руни Мара, Кайл Чандлер, Джейк Лэси, Сара Полсон, Джон Магаро, Кори Майкл Смит, Кевин Краули, Ник Паич, Кэрри Браунштейн
    Описание: Фильм расскажет о сложных взаимоотношениях двух женщин, живущих в Нью-Йорке 50-х годов. Одна из них — совсем молоденькая продавщица, мечтающая о большем, а другая — замужняя дама, страдающая от отсутствия любви.
    Доп. информация:


    Награды:
    Queer Palm 2015г.
    Приз Каннского кинофестиваля за лучшую женскую роль 2015г. - Руни Мара
    Премия Нью-Йоркского общества кинокритиков в номинации «Лучший фильм» 2015г.
    Премия Нью-Йоркского общества кинокритиков в номинации «Лучший оператор» 2015г. - Эдвард Лэкмен
    Премия Нью-Йоркского общества кинокритиков в номинации «Лучший режиссёр» 2015г. - Тодд Хэйнс
    Премия Нью-Йоркского общества кинокритиков в номинации «Лучший сценарий» 2015г. - Филлис Нейджи
    Сэмпл: http://multi-up.com/1080956
    Качество видео: DVDScreener
    Формат видео: AVI
    Видео: XviD, 720x384, 1.88:1, 29.970 fps, 1448 kbps
    Аудио: AC3 Dolby Digital, 48 kHz, 192 kbps, 2/0 (L,R) ch

    MediaInfo

    Общее
    Полное имя : C:\Users\acer001\Videos\раздачи\Carol\CaR0l.2015.L2.DVDScr.1400MB.avi
    Формат : AVI
    Формат/Информация : Audio Video Interleave
    Размер файла : 1,37 Гбайт
    Продолжительность : 1 ч. 58 м.
    Общий поток : 1652 Кбит/сек
    Программа кодирования : VirtualDubMod 1.5.10.3 | www.virtualdub-fr.org || (build 2550/release)
    Библиотека кодирования : VirtualDubMod build 2550/release
    Видео
    Идентификатор : 0
    Формат : MPEG-4 Visual
    Профиль формата : Advanced Simple@L5
    Параметр BVOP формата : 2
    Параметр QPel формата : Нет
    Параметр GMC формата : Без точки перехода
    Параметр матрицы формата : Default (MPEG)
    Идентификатор кодека : XVID
    Идентификатор кодека/Подсказка : XviD
    Продолжительность : 1 ч. 58 м.
    Битрейт : 1448 Кбит/сек
    Ширина : 720 пикселей
    Высота : 384 пикселя
    Соотношение сторон : 1,85:1
    Частота кадров : 29,970 (30000/1001) кадров/сек
    Цветовое пространство : YUV
    Субдискретизация насыщенности : 4:2:0
    Битовая глубина : 8 бит
    Тип развёртки : Прогрессивная
    Метод сжатия : С потерями
    Бит/(Пиксели*Кадры) : 0.175
    Размер потока : 1,20 Гбайт (88%)
    Библиотека кодирования : XviD 1.2.1 (UTC 2008-12-04)
    Аудио
    Идентификатор : 1
    Формат : AC-3
    Формат/Информация : Audio Coding 3
    Расширение режима : CM (complete main)
    Параметр Endianness формата : Big
    Идентификатор кодека : 2000
    Продолжительность : 1 ч. 58 м.
    Вид битрейта : Постоянный
    Битрейт : 192 Кбит/сек
    Каналы : 2 канала
    Расположение каналов : Front: L R
    Частота : 48,0 КГц
    Частота кадров : 31,250 кадров/сек (1536 spf)
    Метод сжатия : С потерями
    Размер потока : 163 Мбайт (12%)
    Выравнивание : Разделение по промежуткам
    Продолжительность промежутка : 33 мс. (1,00 видеокадр)
    Время предзагрузки промежутка : 500 мс.

    Скриншот c названием фильма

    Скриншоты

    Скачать .torrent

    Скачать торрент-файл бесплатно и на максимальной скорости!

    Как скачивать? · Что такое торрент? · Рейтинг и ограничения

    !ВНИМАНИЕ!
    Сайт не распространяет и не хранит электронные версии произведений, а занимается лишь лишь предоставлением доступа к создаваемому пользователями каталогу ссылок на торрент-файлы, которые содержат только списки хеш-сумм, убедительная просьба с жалобами обращаться напрямую к пользователю. Файлы для обмена на трекере предоставлены пользователями сайта, и администрация не несёт ответственности за их содержание. Просьба не заливать файлы, защищенные авторскими правами, а также файлы нелегального содержания!


    _________________
    [Профиль] [ЛС]
    Показать сообщения:    
    Ответить на тему

    Текущее время: Сегодня, в 22:03

    Часовой пояс: GMT + 2



    Вы не можете начинать темы
    Вы не можете отвечать на сообщения
    Вы не можете редактировать свои сообщения
    Вы не можете удалять свои сообщения
    Вы не можете голосовать в опросах
    Вы не можете прикреплять файлы к сообщениям
    Вы не можете скачивать файлы