BitTorrentTracker PerecTracker.org
BitTorrentTracker PerecTracker.org
    
Регистрация  ·  Вход
 
 · 
Забыли пароль?

  • Шоурум / Showroom (Фернандо Мольнар / Fernando Molnar) [2014, Аргентина, драма, DVDRip] Sub Rus + Original Spa

    Ответить на тему
     
    Автор Сообщение

    rechyn

    Создавать темы 25-Дек-2015 22:42

           

    [Цитировать]

    Шоурум / Showroom--Страна: Аргентина
    Жанр: драма
    Год выпуска: 2014
    Продолжительность: 01:08:29-Перевод: Субтитры (by sonnyb)
    Cубтитры: русские
    Оригинальная аудиодорожка: испанский-Режиссер: Фернандо Мольнар / Fernando Molnar
    В ролях: Диего Перетти, Роберто Катаринеу, Андреа Гарроте, Пабло Сеихо-Описание: Диего, увязнув в долгах и потеряв работу, вынужден переехать с семьей в домик своего дяди в провинции и принять его предложение стать продавцом квартир в строящемся жилом комплексе, проводя весь день в демонстрационной квартире — showroom. Это новое занятие постепенно становится его истинной одержимостью, заставляя забыть и о семье и о друзьях.-Сэмпл:
    Качество видео: DVDRip
    Формат видео: AVI
    Видео: XVID MPEG-4, 704x304, 1712,44 kbit/s, 23,9760 fps
    Аудио: AC3 Audio, 256,00 kbit/s, 48000 Hz, Channels: 2
    Формат субтитров: softsub (SRT)

    Пример субтитров

    2
    00:00:58,541 --> 00:01:02,307
    Вот так. Я это поставлю здесь. Да.
    3
    00:01:02,908 --> 00:01:05,308
    ~ Шоурум ~
    4
    00:01:07,217 --> 00:01:08,411
    Проверь, всё ли работает.
    5
    00:01:10,086 --> 00:01:11,451
    Всё в норме.
    6
    00:01:12,452 --> 00:01:15,452
    перевёл sonnyb
    7
    00:01:19,729 --> 00:01:22,994
    - Что она сказала?
    - Что ты ни о чём с ней не договаривался.
    8
    00:01:23,133 --> 00:01:25,863
    Она занята и не приедет.
    9
    00:01:27,670 --> 00:01:30,332
    - Посмотрите, кто это здесь у нас.
    - Она не выйдет.
    10
    00:01:31,040 --> 00:01:32,405
    Не переживай.
    11
    00:01:34,043 --> 00:01:36,841
    - Привет. Как наша невеста?
    - Привет.
    12
    00:01:36,946 --> 00:01:38,379
    Я не выйду в таком виде.
    13
    00:01:38,481 --> 00:01:39,880
    Почему? Ты прекрасна.
    14
    00:01:40,016 --> 00:01:41,347
    Я выгляжу ужасно.
    15
    00:01:41,451 --> 00:01:42,748
    У тебя просто невероятный вид.
    16
    00:01:42,886 --> 00:01:44,786
    - Даже без макияжа.
    - Просто сногсшибательная.
    17
    00:01:44,921 --> 00:01:47,788
    Визажистка уже едет?
    18
    00:01:47,924 --> 00:01:49,084
    Бедняжка...
    19
    00:01:49,192 --> 00:01:50,159
    Что?
    20
    00:01:50,293 --> 00:01:52,557
    У неё случилась личная беда.
    21
    00:01:52,662 --> 00:01:54,425
    Она не приедет?
    22
    00:01:54,531 --> 00:01:57,091
    Её маму госпитализировали.
    23
    00:02:01,137 --> 00:02:02,866
    Долорес, послушай...
    24
    00:02:03,039 --> 00:02:04,006
    Долорес...
    25
    00:02:04,107 --> 00:02:08,009
    Послушай меня.
    Не переживай. Послушай же.
    26
    00:02:08,111 --> 00:02:10,511
    Не плачь. Послушай меня.
    27
    00:02:10,613 --> 00:02:13,173
    Я знаю одну визажистку.
    28
    00:02:13,283 --> 00:02:15,376
    Если хочешь, мы немедленно ей позвоним.
    29
    00:02:15,485 --> 00:02:16,611
    Что скажешь?

    MediaInfo

    Формат : AVI
    Формат/Информация : Audio Video Interleave
    Размер файла : 1,08 Гбайт
    Продолжительность : 1 ч. 18 м.
    Общий поток : 1978 Кбит/сек
    Программа кодирования : VirtualDubMod 1.5.10.3 | www.virtualdub-fr.org || (build 2550/release)
    Библиотека кодирования : VirtualDubMod build 2550/release
    Видео
    Идентификатор : 0
    Формат : MPEG-4 Visual
    Профиль формата : Advanced Simple@L5
    Параметр BVOP формата : 1
    Параметр QPel формата : Нет
    Параметр GMC формата : Без точки перехода
    Параметр матрицы формата : Default (H.263)
    Идентификатор кодека : XVID
    Идентификатор кодека/Подсказка : XviD
    Продолжительность : 1 ч. 18 м.
    Битрейт : 1712 Кбит/сек
    Ширина : 704 пикселя
    Высота : 304 пикселя
    Соотношение сторон : 2,35:1
    Частота кадров : 23,976 (24000/1001) кадра/сек
    Цветовое пространство : YUV
    Субдискретизация насыщенности : 4:2:0
    Битовая глубина : 8 бит
    Тип развёртки : Прогрессивная
    Метод сжатия : С потерями
    Бит/(Пиксели*Кадры) : 0.334
    Размер потока : 961 Мбайт (87%)
    Библиотека кодирования : XviD 1.2.1 (UTC 2008-12-04)
    Аудио
    Идентификатор : 1
    Формат : AC-3
    Формат/Информация : Audio Coding 3
    Расширение режима : CM (complete main)
    Параметр Endianness формата : Big
    Идентификатор кодека : 2000
    Продолжительность : 1 ч. 18 м.
    Вид битрейта : Постоянный
    Битрейт : 256 Кбит/сек
    Каналы : 2 канала
    Расположение каналов : Front: L R
    Частота : 48,0 КГц
    Частота кадров : 31,250 кадров/сек (1536 spf)
    Метод сжатия : С потерями
    Размер потока : 144 Мбайт (13%)
    Выравнивание : Разделение по промежуткам
    Продолжительность промежутка : 42 мс. (1,00 видеокадр)
    Время предзагрузки промежутка : 500 мс.

    Скриншоты

    Скачать .torrent

    Скачать торрент-файл бесплатно и на максимальной скорости!

    Как скачивать? · Что такое торрент? · Рейтинг и ограничения

    !ВНИМАНИЕ!
    Сайт не распространяет и не хранит электронные версии произведений, а занимается лишь лишь предоставлением доступа к создаваемому пользователями каталогу ссылок на торрент-файлы, которые содержат только списки хеш-сумм, убедительная просьба с жалобами обращаться напрямую к пользователю. Файлы для обмена на трекере предоставлены пользователями сайта, и администрация не несёт ответственности за их содержание. Просьба не заливать файлы, защищенные авторскими правами, а также файлы нелегального содержания!


    _________________
    [Профиль] [ЛС]
    Показать сообщения:    
    Ответить на тему

    Текущее время: Сегодня, в 16:35

    Часовой пояс: GMT + 2



    Вы не можете начинать темы
    Вы не можете отвечать на сообщения
    Вы не можете редактировать свои сообщения
    Вы не можете удалять свои сообщения
    Вы не можете голосовать в опросах
    Вы не можете прикреплять файлы к сообщениям
    Вы не можете скачивать файлы