BitTorrentTracker PerecTracker.org
BitTorrentTracker PerecTracker.org
    
Регистрация  ·  Вход
 
 · 
Забыли пароль?

  • В изгнании / Outcast (Ник Пауэлл / Nick Powell) [2014, Китай, США, Франция, Боевик, Приключения, HDRip] MVO

    Ответить на тему
     
    Автор Сообщение

    rechyn

    Создавать темы 24-Дек-2015 08:54

           

    [Цитировать]

    В изгнании
    Outcast
    -Год выпуска: 2014
    Страна: Китай, США, Франция
    Жанр: Боевик, Приключения
    Продолжительность: 01:38:47
    Перевод: Профессиональный (многоголосый закадровый) [Лицензия]
    Субтитры: нет
    Оригинальная аудиодорожка: нет-Режиссер: Ник Пауэлл / Nick Powell-В ролях: Николас Кейдж, Хейден Кристенсен, Лю Ифэй, Рон Смуренбург, Энди Он, Джавед Эль Берни, Фернандо Чиен, Престон Бэйкер, Байрон Лосон, Томер Оз-Описание: Сюжет фильма разворачивается в Китае, в Средние века. Наследник императорского престола становится целью убийства у своего презираемого старшего брата и вынужден бежать. Единственное, что остается молодому принцу, – это защита его сестры при помощи воина-крестоносца (Хейден Кристенсен), которому, в свою очередь, придется смириться с собственными демонами и, сплотившись с некогда легендарным воином, ныне ставшим бандитом (Николас Кейдж), вернуть принца на его законное место на троне...- -Семпл: http://multi-up.com/1080583/-Качество видео: HDRip (исходник BDRip 720p)
    Формат видео: AVI
    Видео: 720x304 (2.37:1), 23.976 fps, XviD build 50 ~1651 kbps avg, 0.31 bit/pixel
    Аудио: 48 kHz, AC3 Dolby Digital, 3/2 (L,C,R,l,r) + LFE ch, ~448 kbps-

    MediaInfo

    General
    Complete name : Outcast.2014.P.HDRip.avi
    Format : AVI
    Format/Info : Audio Video Interleave
    File size : 1.46 GiB
    Duration : 1h 38mn
    Overall bit rate : 2 109 Kbps
    Writing application : VirtualDubMod 1.5.10.2 (build 2540/release)
    Writing library : VirtualDubMod build 2540/release
    Video
    ID : 0
    Format : MPEG-4 Visual
    Format profile : Advanced Simple@L5
    Format settings, BVOP : 2
    Format settings, QPel : No
    Format settings, GMC : No warppoints
    Format settings, Matrix : Default (MPEG)
    Codec ID : XVID
    Codec ID/Hint : XviD
    Duration : 1h 38mn
    Bit rate : 1 652 Kbps
    Width : 720 pixels
    Height : 304 pixels
    Display aspect ratio : 2.35:1
    Frame rate : 23.976 (24000/1001) fps
    Color space : YUV
    Chroma subsampling : 4:2:0
    Bit depth : 8 bits
    Scan type : Progressive
    Compression mode : Lossy
    Bits/(Pixel*Frame) : 0.315
    Stream size : 1.14 GiB (78%)
    Writing library : XviD 1.2.1 (UTC 2008-12-04)
    Audio
    ID : 1
    Format : AC-3
    Format/Info : Audio Coding 3
    Mode extension : CM (complete main)
    Format settings, Endianness : Big
    Codec ID : 2000
    Duration : 1h 38mn
    Bit rate mode : Constant
    Bit rate : 448 Kbps
    Channel(s) : 6 channels
    Channel positions : Front: L C R, Side: L R, LFE
    Sampling rate : 48.0 KHz
    Frame rate : 31.250 fps (1536 spf)
    Compression mode : Lossy
    Stream size : 317 MiB (21%)
    Alignment : Split accross interleaves
    Interleave, duration : 42 ms (1.00 video frame)
    Interleave, preload duratio : 500 ms

    Скриншоты



    Скачать .torrent

    Скачать торрент-файл бесплатно и на максимальной скорости!

    Как скачивать? · Что такое торрент? · Рейтинг и ограничения

    !ВНИМАНИЕ!
    Сайт не распространяет и не хранит электронные версии произведений, а занимается лишь лишь предоставлением доступа к создаваемому пользователями каталогу ссылок на торрент-файлы, которые содержат только списки хеш-сумм, убедительная просьба с жалобами обращаться напрямую к пользователю. Файлы для обмена на трекере предоставлены пользователями сайта, и администрация не несёт ответственности за их содержание. Просьба не заливать файлы, защищенные авторскими правами, а также файлы нелегального содержания!


    _________________
    [Профиль] [ЛС]
    Показать сообщения:    
    Ответить на тему

    Текущее время: Сегодня, в 01:53

    Часовой пояс: GMT + 2



    Вы не можете начинать темы
    Вы не можете отвечать на сообщения
    Вы не можете редактировать свои сообщения
    Вы не можете удалять свои сообщения
    Вы не можете голосовать в опросах
    Вы не можете прикреплять файлы к сообщениям
    Вы не можете скачивать файлы