BitTorrentTracker PerecTracker.org
BitTorrentTracker PerecTracker.org
    
Регистрация  ·  Вход
 
 · 
Забыли пароль?

  • Монстры на каникулах 2 / Hotel Transylvania 2 (Генндий Тартаковский / Genndy Tartakovsky) [2015, США, Мультфильм, фэнтези, комедия, семейный, WEB-DLRip] Dub (iTunes)

    Ответить на тему
     
    Автор Сообщение

    rechyn

    Создавать темы 24-Дек-2015 04:53

           

    [Цитировать]

    -Монстры на каникулах 2 / Hotel Transylvania 2
    «Drac's pack is back»
    Страна: США / Columbia Pictures, LStar Capital, Sony Pictures Animation
    Жанр: Мультфильм, фэнтези, комедия, семейный
    Продолжительность: 01:29:49
    Год выпуска: 2015-Перевод: Профессиональный (дублированный) iTunes
    Русские субтитры: нет-Режиссёр: Генндий Тартаковский / Genndy Tartakovsky-Роли озвучивали: Адам Сэндлер, Энди Сэмберг, Селена Гомес, Кевин Джеймс, Стив Бушеми, Дэвид Спейд, Кигэн-Майкл Ки, Эшер Блинкофф, Фрэн Дрешер, Молли Шеннон-Описание: Граф Дракула выдает свою очаровательную дочь замуж за парня из мира людей, и у молодой «смешанной» пары рождается сын. Станет ли этот ребенок человеком или вампиром?- | | -Качество: WEB-DLRip
    Формат: AVI
    Видео: 720x384 (1.85:1), 23.976 fps, XviD build, 1786 Kbps, 0.269 bit/pixel
    Аудио: 48 kHz, AC3 Dolby Digital, 3/2 (L,C,R,l,r) + LFE ch, 384 Kbps
    Субтитры: отсутствуют--

    Подробные технические данные

    General Complete name : M0HCtRy.2.2015.D.WEB-DLRip Format : AVI Format/Info : Audio Video Interleave File size : 1.37 GiB Duration : 1h 29mn Overall bit rate : 2 177 Kbps Writing application : VirtualDubMod 1.5.10.3 | www.virtualdub-fr.org || (build 2550/release) Writing library : VirtualDubMod build 2550/release Video #0 ID : 0 Format : MPEG-4 Visual Format profile : Advanced Simple@L5 Format settings, BVOP : 2 Format settings, QPel : No Format settings, GMC : No warppoints Format settings, Matrix : Default (MPEG) Codec ID : XVID Codec ID/Hint : XviD Duration : 1h 29mn Bit rate : 1 786 Kbps Width : 720 pixels Height : 384 pixels Display aspect ratio : 1.85:1 Frame rate : 23.976 fps Color space : YUV Chroma subsampling : 4:2:0 Bit depth : 8 bits Scan type : Progressive Compression mode : Lossy Bits/(Pixel*Frame) : 0.269 Stream size : 1.12 GiB (82%) Writing library : XviD 1.2.1 (UTC 2008-12-04) Audio #1 ID : 1 Format : AC-3 Format/Info : Audio Coding 3 Mode extension : CM (complete main) Format settings, Endianness : Big Codec ID : 2000 Duration : 1h 29mn Bit rate mode : Constant Bit rate : 384 Kbps Channel(s) : 6 channels Channel positions : Front: L C R, Side: L R, LFE Sampling rate : 48.0 KHz Bit depth : 16 bits Compression mode : Lossy Stream size : 245 MiB (18%) Alignment : Split accross interleaves Interleave, duration : 42 ms (1.01 video frame) Interleave, preload duration : 500 ms

    Скриншоты

    Скачать .torrent

    Скачать торрент-файл бесплатно и на максимальной скорости!

    Как скачивать? · Что такое торрент? · Рейтинг и ограничения

    !ВНИМАНИЕ!
    Сайт не распространяет и не хранит электронные версии произведений, а занимается лишь лишь предоставлением доступа к создаваемому пользователями каталогу ссылок на торрент-файлы, которые содержат только списки хеш-сумм, убедительная просьба с жалобами обращаться напрямую к пользователю. Файлы для обмена на трекере предоставлены пользователями сайта, и администрация не несёт ответственности за их содержание. Просьба не заливать файлы, защищенные авторскими правами, а также файлы нелегального содержания!


    _________________
    [Профиль] [ЛС]
    Показать сообщения:    
    Ответить на тему

    Текущее время: Сегодня, в 20:38

    Часовой пояс: GMT + 2



    Вы не можете начинать темы
    Вы не можете отвечать на сообщения
    Вы не можете редактировать свои сообщения
    Вы не можете удалять свои сообщения
    Вы не можете голосовать в опросах
    Вы не можете прикреплять файлы к сообщениям
    Вы не можете скачивать файлы