BitTorrentTracker PerecTracker.org
BitTorrentTracker PerecTracker.org
    
Регистрация  ·  Вход
 
 · 
Забыли пароль?

  • [ATV3] Эверест / Everest (Бальтасар Кормакур / Baltasar Kormákur ) [2015, США, Великобритания, Исландия, Триллер, драма, приключения, биография, история, BDRip, HD (1080p)] DUB + Original + sub (rus, eng, ukr)

    Ответить на тему
     
    Автор Сообщение

    Flirldrerve

    Создавать темы 24-Дек-2015 04:53

           

    [Цитировать]

    Эверест / Everest
    «Самое опасное место на планете»
    7.372 / 10 7.20 / 10
    -Год выпуска: 2015
    Страна: США, Великобритания, Исландия
    Жанр: Триллер, драма, приключения, биография, история
    Продолжительность: 02:01:11
    Перевод: Дублированный (Лицензия)
    Оригинальная аудиодорожка: Есть
    Cубтитры: Русские форсированные, Русские, Английские, Украинские
    Режиссёр: Бальтасар Кормакур
    Сценарий: Уильям Николсон, Саймон Бофой
    Продюсер: Ники Кентиш Барнс, Тим Беван, Лиза Чейсин
    Оператор: Сальваторе Тотино
    Композитор: Дарио Марианелли
    Художник: Гари Фриман, Алессандро Сантуччи, Том Стилл
    Монтаж: Мик Одсли
    В ролях: Джейсон Кларк, Джош Бролин, Джейк Джилленхол, Сэм Уортингтон, Джон Хоукс, Майкл Келли, Ингвар Эггерт Сигюрдссон, Кира Найтли, Эмили Уотсон, Робин Райт
    Бюджет: $55 000 000
    Сборы в США: $43 482 270
    Сборы в мире: + $158 912 408 = $202 394 678
    Сборы в России: $11 230 085
    Мировая премьера: 2 сентября 2015
    Премьера (РФ): 24 сентября 2015, «UPI»
    Описание: Эверест — великая неприступная гора, покорить вершину которой мечтают многие профессиональные альпинисты. Одна из экспедиций на ее вершину закончилась настоящей трагедией, однако этот факт не останавливает отважных альпинистов.
    Опытный инструктор Роб Холл, собрав группу из лучших альпинистов, собирается совершить восхождение на самую высокую вершину планеты. Все эти люди полны мужества и отваги и они не остановятся ни перед чем, пока не поднимутся на вершину Эвереста. Но даже если эта гора покорится им, смогут ли они вернуться обратно живыми и невредимыми?..-Качество исходника: Blu-Ray (HDClub0
    Качество: BDRip
    Тип: HD (1080p)
    Контейнер: M4V
    Видео: H.264, 1920x800, 2.40:1, 8 000 Kbps, 23.976 fps
    Аудио 1: Русский/Дублированный (Лицензия), AAC / 2.0 / 158 Kbps / 48.0 KHz
    Аудио 2: Английский/Оригинальная дорожка , AAC / 2.0 / 158 Kbps / 48.0 KHz
    Аудио 3: Русский/Дублированный (Лицензия), AC-3 / 5.1 / 448 Kbps / 48.0 KHz
    Аудио 4: Английский/Оригинальная дорожка , AC-3 / 5.1 / 640 Kbps / 48.0 KHz
    Субтитры 1: Русские форсированные
    Субтитры 2: Русские полные
    Субтитры 3: Английские полные
    Субтитры 4: Украинские полные
    -

    iTunes Meta Tags

    Sort Name: Everest
    XID: Apple:vendor_id:2015-739642
    contentID: 1037057181
    Copyright: © 2015 Universal Studios. All Rights Reserved.
    Screenwriters: Уильям Николсон, Саймон Бофой
    Producers: Ники Кентиш Барнс, Тим Беван, Лиза Чейсин
    Director: Бальтасар Кормакур
    Cast: Джейсон Кларк, Джош Бролин, Джейк Джилленхол, Сэм Уортингтон, Джон Хоукс, Майкл Келли, Ингвар Эггерт Сигюрдссон, Кира Найтли, Эмили Уотсон, Робин Райт
    Studio: Universal Pictures
    Rating Annotation: Rated PG-13 for intense peril and disturbing images.
    Rating: 4
    Long Description: Эверест - великая неприступная гора, покорить вершину которой мечтают многие профессиональные альпинисты. Одна из экспедиций на ее вершину закончилась настоящей трагедией, однако этот факт не останавливает отважных альпинистов.
    Опытный инструктор Роб Холл, собрав группу из лучших альпинистов, собирается совершить восхождение на самую высокую вершину планеты. Все эти люди полны мужества и отваги и они не остановятся ни перед чем, пока не поднимутся на вершину Эвереста. Но даже если эта гора покорится им, смогут ли они вернуться обратно живыми и невредимыми?..
    Description: Эверест - великая неприступная гора, покорить вершину которой мечтают многие профессиональные альпинисты. Одна из экспедиций на ее вершину закончилась настоящей трагедией, однако этот факт не останавливает отважных альпинистов...
    Release Date: 2015-09-02T08:00:00Z
    Genre: Drama
    Artist: Baltasar Kormákur
    Name: Everest (2015)

    MediaInfo

    General
    Complete name : /Users/imac/HandBrake/Everest (1080p HD).m4v
    Format : MPEG-4
    Codec ID : M4V
    File size : 7.97 GiB
    Duration : 2h 1mn
    Overall bit rate mode : Variable
    Overall bit rate : 9 416 Kbps
    Movie name : Everest (2015)
    Performer : Baltasar Kormákur
    Director : Бальтасар Кормакур
    Actor : Джейсон Кларк / Джош Бролин / Джейк Джилленхол / Сэм Уортингтон / Джон Хоукс / Майкл Келли / Ингвар Эггерт Сигюрдссон / Кира Найтли / Эмили Уотсон / Робин Райт
    Screenplay by : Уильям Николсон / Саймон Бофой
    Producer : Ники Кентиш Барнс / Тим Беван / Лиза Чейсин
    Production studio : Universal Pictures
    Genre : Drama
    ContentType : Short Film
    Description : Эверест - великая неприступная гора, покорить вершину которой мечтают многие профессиональные альпинисты. Одна из экспедиций на ее вершину закончилась настоящей трагедией, однако этот факт не останавливает отважных альпинистов...
    Recorded date : UTC 2015-09-02 08:00:00
    Encoded date : UTC 2015-12-23 22:28:52
    Tagged date : UTC 2015-12-23 22:32:12
    Copyright : © 2015 Universal Studios. All Rights Reserved.
    Cover : Yes
    Rating : None
    Title/Sort : Everest
    LongDescription : Эверест - великая неприступная гора, покорить вершину которой мечтают многие профессиональные альпинисты. Одна из экспедиций на ее вершину закончилась настоящей трагедией, однако этот факт не останавливает отважных альпинистов. / Опытный инструктор Роб Холл, собрав группу из лучших альпинистов, собирается совершить восхождение на самую высокую вершину планеты. Все эти люди полны мужества и отваги и они не остановятся ни перед чем, пока не поднимутся на вершину Эвереста. Но даже если эта гора покорится им, смогут ли они вернуться обратно живыми и невредимыми?..
    AppleStoreCatalogID : 1037057181
    Vendor : Apple:vendor_id:2015-739642
    ContentRating : mpaa|PG-13|300|Rated PG-13 for intense peril and disturbing images.
    Video #1
    ID : 1
    Format : AVC
    Format/Info : Advanced Video Codec
    Format profile : High@L4
    Format settings, CABAC : Yes
    Format settings, ReFrames : 4 frames
    Codec ID : avc1
    Codec ID/Info : Advanced Video Coding
    Duration : 2h 1mn
    Source duration : 2h 1mn
    Bit rate : 8 000 Kbps
    Width : 1 920 pixels
    Height : 800 pixels
    Display aspect ratio : 2.40:1
    Frame rate mode : Variable
    Frame rate : 23.976 fps
    Minimum frame rate : 23.810 fps
    Maximum frame rate : 24.272 fps
    Color space : YUV
    Chroma subsampling : 4:2:0
    Bit depth : 8 bits
    Scan type : Progressive
    Bits/(Pixel*Frame) : 0.217
    Stream size : 6.77 GiB (85%)
    Source stream size : 6.77 GiB (85%)
    Title : Main Program
    Writing library : x264 core 142 r2479 dd79a61
    Encoding settings : cabac=1 / ref=4 / deblock=1:-2:-2 / analyse=0x3:0x133 / me=umh / subme=10 / psy=1 / psy_rd=1.00:0.15 / mixed_ref=1 / me_range=32 / chroma_me=1 / trellis=2 / 8x8dct=1 / cqm=0 / deadzone=21,11 / fast_pskip=0 / chroma_qp_offset=-3 / threads=36 / lookahead_threads=6 / sliced_threads=0 / nr=0 / decimate=0 / interlaced=0 / bluray_compat=0 / constrained_intra=0 / bframes=16 / b_pyramid=2 / b_adapt=2 / b_bias=0 / direct=3 / weightb=1 / open_gop=0 / weightp=2 / keyint=240 / keyint_min=24 / scenecut=40 / intra_refresh=0 / rc_lookahead=60 / rc=2pass / mbtree=1 / bitrate=8000 / ratetol=1.0 / qcomp=0.70 / qpmin=0 / qpmax=69 / qpstep=4 / cplxblur=20.0 / qblur=0.5 / vbv_maxrate=25000 / vbv_bufsize=25000 / nal_hrd=none / filler=0 / ip_ratio=1.40 / aq=1:1.00
    Language : English
    Encoded date : UTC 2015-12-23 22:28:52
    Tagged date : UTC 2015-12-23 22:29:07
    Color range : Limited
    Color primaries : BT.709
    Transfer characteristics : BT.709
    Matrix coefficients : BT.709
    Menus : 10,11
    Video #2
    ID : 11
    Format : JPEG
    Codec ID : jpeg
    Duration : 2h 1mn
    Bit rate mode : Variable
    Bit rate : 1 229 bps
    Width : 640 pixels
    Height : 266 pixels
    Display aspect ratio : 2.40:1
    Frame rate mode : Variable
    Frame rate : 0.003 fps
    Minimum frame rate : 0.002 fps
    Maximum frame rate : 0.004 fps
    Color space : YUV
    Chroma subsampling : 4:2:0
    Bit depth : 8 bits
    Compression mode : Lossy
    Bits/(Pixel*Frame) : 2.406
    Stream size : 1 000 KiB (0%)
    Title : Chapter Images
    Language : English
    Default : No
    Encoded date : UTC 2015-12-23 22:29:18
    Tagged date : UTC 2015-12-23 22:29:19
    Menu For : 1
    Audio #1
    ID : 2
    Format : AAC
    Format/Info : Advanced Audio Codec
    Format profile : LC
    Codec ID : 40
    Duration : 2h 1mn
    Bit rate mode : Variable
    Bit rate : 158 Kbps
    Maximum bit rate : 248 Kbps
    Channel(s) : 2 channels
    Channel positions : Front: L R
    Sampling rate : 48.0 KHz
    Frame rate : 46.875 fps (1024 spf)
    Compression mode : Lossy
    Stream size : 137 MiB (2%)
    Title : Russian Stereo
    Language : Russian
    Default : Yes
    Alternate group : 1
    Encoded date : UTC 2015-12-23 22:28:52
    Tagged date : UTC 2015-12-23 22:29:09
    Fallback From : 4
    Subtitles : 6,7
    Menus : 10
    Audio #2
    ID : 3
    Format : AAC
    Format/Info : Advanced Audio Codec
    Format profile : LC
    Codec ID : 40
    Duration : 2h 1mn
    Bit rate mode : Variable
    Bit rate : 158 Kbps
    Maximum bit rate : 264 Kbps
    Channel(s) : 2 channels
    Channel positions : Front: L R
    Sampling rate : 48.0 KHz
    Frame rate : 46.875 fps (1024 spf)
    Compression mode : Lossy
    Stream size : 137 MiB (2%)
    Title : English Stereo
    Language : English
    Default : No
    Alternate group : 1
    Encoded date : UTC 2015-12-23 22:28:52
    Tagged date : UTC 2015-12-23 22:29:09
    Fallback From : 5
    Audio #3
    ID : 4
    Format : AC-3
    Format/Info : Audio Coding 3
    Mode extension : CM (complete main)
    Format settings, Endianness : Big
    Codec ID : ac-3
    Duration : 2h 1mn
    Bit rate mode : Constant
    Bit rate : 448 Kbps
    Channel(s) : 6 channels
    Channel positions : Front: L C R, Side: L R, LFE
    Sampling rate : 48.0 KHz
    Frame rate : 31.250 fps (1536 spf)
    Bit depth : 16 bits
    Compression mode : Lossy
    Stream size : 388 MiB (5%)
    Title : Russian DD 5.1
    Language : Russian
    Default : Inherited From: 2
    Alternate group : 1
    Encoded date : UTC 2015-12-23 22:28:52
    Tagged date : UTC 2015-12-23 22:29:00
    Fallback To : 2
    Subtitles : 6,7
    Audio #4
    ID : 5
    Format : AC-3
    Format/Info : Audio Coding 3
    Mode extension : CM (complete main)
    Format settings, Endianness : Big
    Codec ID : ac-3
    Duration : 2h 1mn
    Bit rate mode : Constant
    Bit rate : 640 Kbps
    Channel(s) : 6 channels
    Channel positions : Front: L C R, Side: L R, LFE
    Sampling rate : 48.0 KHz
    Frame rate : 31.250 fps (1536 spf)
    Bit depth : 16 bits
    Compression mode : Lossy
    Stream size : 555 MiB (7%)
    Title : English DD 5.1
    Language : English
    Default : No
    Alternate group : 1
    Encoded date : UTC 2015-12-23 22:28:52
    Tagged date : UTC 2015-12-23 22:29:00
    Fallback To : 3
    Text #1
    ID : 6
    Format : Timed Text
    Muxing mode : sbtl
    Codec ID : tx3g
    Duration : 1h 54mn
    Bit rate mode : Variable
    Bit rate : 3 bps
    Stream size : 2.77 KiB (0%)
    Title : Russian forced
    Language : Russian
    Default : Yes
    Forced : Yes
    Alternate group : 2
    Encoded date : UTC 2015-12-23 22:28:52
    Tagged date : UTC 2015-12-23 22:28:52
    Subtitles For : 2,4
    Full Alternative : 7
    Text #2
    ID : 7
    Format : Timed Text
    Muxing mode : sbtl
    Codec ID : tx3g
    Duration : 1h 54mn
    Bit rate mode : Variable
    Bit rate : 94 bps
    Stream size : 78.7 KiB (0%)
    Title : Russian full
    Language : Russian
    Default : No
    Forced : No
    Alternate group : 2
    Encoded date : UTC 2015-12-23 22:28:52
    Tagged date : UTC 2015-12-23 22:28:52
    Subtitles For : 2,4
    Forced Alternative : 6
    Text #3
    ID : 8
    Format : Timed Text
    Muxing mode : sbtl
    Codec ID : tx3g
    Duration : 1h 51mn
    Bit rate mode : Variable
    Bit rate : 69 bps
    Stream size : 56.6 KiB (0%)
    Title : English full
    Language : English
    Default : No
    Forced : No
    Alternate group : 2
    Encoded date : UTC 2015-12-23 22:28:52
    Tagged date : UTC 2015-12-23 22:28:52
    Text #4
    ID : 9
    Format : Timed Text
    Muxing mode : sbtl
    Codec ID : tx3g
    Duration : 1h 56mn
    Bit rate mode : Variable
    Bit rate : 89 bps
    Stream size : 75.8 KiB (0%)
    Title : Ukrainian full
    Language : Ukrainian
    Default : No
    Forced : No
    Alternate group : 2
    Encoded date : UTC 2015-12-23 22:28:52
    Tagged date : UTC 2015-12-23 22:28:52
    Menu #1
    00:00:00.000 : 00:00:00.000
    00:05:12.229 : 00:05:12.145
    00:09:36.159 : 00:09:36.075
    00:15:13.246 : 00:15:13.162
    00:20:58.507 : 00:20:58.424
    00:26:30.798 : 00:26:30.714
    00:33:15.202 : 00:33:15.118
    00:40:23.838 : 00:40:23.755
    00:47:23.466 : 00:47:23.382
    00:52:14.673 : 00:52:14.590
    00:57:49.257 : 00:57:49.174
    01:01:54.878 : 01:01:54.794
    01:07:22.163 : 01:07:22.080
    01:15:40.661 : 01:15:40.578
    01:21:03.984 : 01:21:03.901
    01:26:59.673 : 01:26:59.589
    01:32:39.220 : 01:32:39.137
    01:41:20.533 : 01:41:20.449
    01:46:47.735 : 01:46:47.651
    01:54:06.548 : 01:54:06.465
    Menu #2
    ID : 10
    Codec ID : text
    Duration : 2h 1mn
    Language : English
    Encoded date : UTC 2015-12-23 22:29:09
    Tagged date : UTC 2015-12-23 22:29:09
    Bit rate mode : CBR
    Menu For : 2,1
    00:00:00.000 : 00:00:00.000
    00:05:12.229 : 00:05:12.145
    00:09:36.159 : 00:09:36.075
    00:15:13.246 : 00:15:13.162
    00:20:58.507 : 00:20:58.424
    00:26:30.798 : 00:26:30.714
    00:33:15.202 : 00:33:15.118
    00:40:23.838 : 00:40:23.755
    00:47:23.466 : 00:47:23.382
    00:52:14.673 : 00:52:14.590
    00:57:49.257 : 00:57:49.174
    01:01:54.878 : 01:01:54.794
    01:07:22.163 : 01:07:22.080
    01:15:40.661 : 01:15:40.578
    01:21:03.984 : 01:21:03.901
    01:26:59.673 : 01:26:59.589
    01:32:39.220 : 01:32:39.137
    01:41:20.533 : 01:41:20.449
    01:46:47.735 : 01:46:47.651
    01:54:06.548 : 01:54:06.465

    x264 лог

    x264 [info]: frame I:997   Avg QP:14.58  size:189046
    x264 [info]: frame P:42118 Avg QP:17.53  size: 71183
    x264 [info]: frame B:131202 Avg QP:17.99  size: 31124
    x264 [info]: consecutive B-frames:  3.1%  4.6% 16.3% 17.5% 15.7% 33.1%  2.9%  0.7%  0.4%  0.3%  0.2%  0.1%  0.1%  0.6%  0.4%  1.0%  3.2%
    x264 [info]: mb I  I16..4: 15.7% 72.3% 12.0%
    x264 [info]: mb P  I16..4:  3.1% 19.5%  1.2%  P16..4: 40.8% 18.8% 10.5%  0.4%  0.2%    skip: 5.6%
    x264 [info]: mb B  I16..4:  0.7%  3.0%  0.1%  B16..8: 37.2% 11.9%  2.6%  direct:11.2%  skip:33.3%  L0:42.0% L1:42.7% BI:15.3%
    x264 [info]: 8x8 transform intra:80.6% inter:54.4%
    x264 [info]: direct mvs  spatial:98.8% temporal:1.2%
    x264 [info]: coded y,uvDC,uvAC intra: 89.1% 88.7% 73.2% inter: 35.5% 36.2% 17.6%
    x264 [info]: i16 v,h,dc,p: 16%  9% 36% 39%
    x264 [info]: i8 v,h,dc,ddl,ddr,vr,hd,vl,hu:  8%  9% 12%  9% 12% 11% 13% 12% 14%
    x264 [info]: i4 v,h,dc,ddl,ddr,vr,hd,vl,hu:  9%  8%  6%  9% 16% 14% 15% 11% 13%
    x264 [info]: i8c dc,h,v,p: 54% 18% 14% 13%
    x264 [info]: Weighted P-Frames: Y:7.9% UV:4.4%
    x264 [info]: ref P L0: 50.2% 11.1% 25.8% 10.4%  2.5%  0.1%
    x264 [info]: ref B L0: 82.5% 14.3%  3.2%
    x264 [info]: ref B L1: 91.5%  8.5%
    x264 [info]: kb/s:7999.61

    Скриншоты

    -

    Релиз подготовлен для просмотра на Apple TV, iPad, iPhone, iPod Touch.
    Для просмотра данного релиза на компьютере с ОС Windows рекомендуется использовать VLC media player
    Скачать .torrent

    Скачать торрент-файл бесплатно и на максимальной скорости!

    Как скачивать? · Что такое торрент? · Рейтинг и ограничения

    !ВНИМАНИЕ!
    Сайт не распространяет и не хранит электронные версии произведений, а занимается лишь лишь предоставлением доступа к создаваемому пользователями каталогу ссылок на торрент-файлы, которые содержат только списки хеш-сумм, убедительная просьба с жалобами обращаться напрямую к пользователю. Файлы для обмена на трекере предоставлены пользователями сайта, и администрация не несёт ответственности за их содержание. Просьба не заливать файлы, защищенные авторскими правами, а также файлы нелегального содержания!


    _________________
    [Профиль] [ЛС]
    Показать сообщения:    
    Ответить на тему

    Текущее время: Сегодня, в 22:07

    Часовой пояс: GMT + 2



    Вы не можете начинать темы
    Вы не можете отвечать на сообщения
    Вы не можете редактировать свои сообщения
    Вы не можете удалять свои сообщения
    Вы не можете голосовать в опросах
    Вы не можете прикреплять файлы к сообщениям
    Вы не можете скачивать файлы