BitTorrentTracker PerecTracker.org
BitTorrentTracker PerecTracker.org
    
Регистрация  ·  Вход
 
 · 
Забыли пароль?

  • Между нами, девочками (По семейным обстоятельствам) / Серии: 1-20 из 20 (Алексей Кирющенко) [2015, лирическая комедия, WEBRip]

    Ответить на тему
     
    Автор Сообщение

    rechyn

    Создавать темы 23-Дек-2015 23:43

           

    [Цитировать]

    Между нами, девочками (По семейным обстоятельствам)
    Год выпуска: 2015
    Производство: LOOK FILM по заказу "Студия Квартал - 95"
    Жанр: лирическая комедия
    Продолжительность: 00:45:00
    Субтитры: Нет
    Режиссёр: Алексей Кирющенко
    В ролях: Юлия Меньшова, Наталья Скоморохова, Галина Петрова, Митя Лабуш, Валерий Гаркалин, Валерий Афанасьев, Александр Карпов (III), Олег Филипчик, Александр Сергеев (IV), Александр Никитин (IV), Роман Синицын, Максим Емельянов, Максим Батенёв
    Описание: В провинциальном городе Семиозёрске живёт семья Кузнецовых-Сайко: Олеся (21 год, студентка художественного колледжа), её мама Елена (45 лет, начальник отдела снабжения в строительной компании) и бабушка Ираида Степановна (65 лет, исполнительница романсов и народных песен в местной филармонии).
    У наших героинь разный характер и взгляды на жизнь, но всех их, кроме родственных уз, объединяет отсутствие личного женского счастья. Супруг Ираиды Степановны давно умер. Муж Елены – отец Олеси – лет десять назад ушёл из семьи, и Елена так больше и не вышла замуж. Только у Олеси есть молодой человек – Никита, но его существование Олеся скрывает.
    Именно Никита становится причиной того, что устоявшийся уклад жизни в семье Кузнецовых рушится. Олеся приводит Никиту домой и объявляет маме и бабушке, что они будут жить вместе. Елена в ужасе. Ей не нравится Никита, и она начинает выживать его из квартиры.
    Конфликт между тремя главными героинями приведёт к тому, что в какой-то момент они решат разменять квартиру и разъехаться. Но, как бы они ни ссорились, какими бы разными ни были, они – одна семья, и вместе им гораздо лучше, чем порознь.
    -
    Доп. информация: Реклама отсутствует!-Все раздачи сериала: http://perectracker.org/tracker.php?f=9&nm=М...%нами,%девочками
    Сэмпл: https://cloud.mail.ru/public/54775be2cac8/%D0%9C%D0...Rip.by.simka.avi
    Качество: WEBRip
    Формат: AVI
    Видео кодек: XviD
    Аудио кодек: MP3
    Видео: 720x400, 25 fps, XviD, ~1400 kbps, 0.194 bit/pixel
    Аудио: 44,1 kHz, MPEG Layer 3, 2 ch, 192 kbps

    MI

    Общее
    Полное имя : C:\Users\simka\Desktop\Между нами, девочками (По семейным обстоятельствам) (2015) - Студия Квартал - 95 WEB-DLRip\Между нами, девочками.(01.seriya).2015.XviD.WEB-DLRip.by.simka.avi
    Формат : AVI
    Формат/Информация : Audio Video Interleave
    Размер файла : 501 Мбайт
    Продолжительность : 44 м.
    Общий поток : 1588 Кбит/сек
    Программа кодирования : VirtualDubMod 1.5.10.3 | www.virtualdub-fr.org || (build 2550/release)
    Библиотека кодирования : VirtualDubMod build 2550/release
    Видео
    Идентификатор : 0
    Формат : MPEG-4 Visual
    Профиль формата : Advanced Simple@L5
    Параметр BVOP формата : 2
    Параметр QPel формата : Нет
    Параметр GMC формата : Без точки перехода
    Параметр матрицы формата : Default (MPEG)
    Идентификатор кодека : XVID
    Идентификатор кодека/Подсказка : XviD
    Продолжительность : 44 м.
    Битрейт : 1386 Кбит/сек
    Ширина : 720 пикселей
    Высота : 400 пикселей
    Соотношение сторон : 16:9
    Частота кадров : 25,000 кадров/сек
    Цветовое пространство : YUV
    Субдискретизация насыщенности : 4:2:0
    Битовая глубина : 8 бит
    Тип развёртки : Прогрессивная
    Метод сжатия : С потерями
    Бит/(Пиксели*Кадры) : 0.192
    Размер потока : 438 Мбайт (87%)
    Библиотека кодирования : XviD 1.2.1 (UTC 2008-12-04)
    Аудио
    Идентификатор : 1
    Формат : MPEG Audio
    Версия формата : Version 1
    Профиль формата : Layer 3
    Режим : Joint stereo
    Расширение режима : MS Stereo
    Идентификатор кодека : 55
    Идентификатор кодека/Подсказка : MP3
    Продолжительность : 44 м.
    Вид битрейта : Постоянный
    Битрейт : 192 Кбит/сек
    Каналы : 2 канала
    Частота : 44,1 КГц
    Метод сжатия : С потерями
    Размер потока : 60,6 Мбайт (12%)
    Выравнивание : Разделение по промежуткам
    Продолжительность промежутка : 40 мс. (1,00 видеокадр)
    Время предзагрузки промежутка : 500 мс.
    Библиотека кодирования : LAME3.99r
    Настройки программы : -m j -V 4 -q 2 -lowpass 18.6 -b 192

    Скриншоты

    Скачать .torrent

    Скачать торрент-файл бесплатно и на максимальной скорости!

    Как скачивать? · Что такое торрент? · Рейтинг и ограничения

    !ВНИМАНИЕ!
    Сайт не распространяет и не хранит электронные версии произведений, а занимается лишь лишь предоставлением доступа к создаваемому пользователями каталогу ссылок на торрент-файлы, которые содержат только списки хеш-сумм, убедительная просьба с жалобами обращаться напрямую к пользователю. Файлы для обмена на трекере предоставлены пользователями сайта, и администрация не несёт ответственности за их содержание. Просьба не заливать файлы, защищенные авторскими правами, а также файлы нелегального содержания!


    _________________
    [Профиль] [ЛС]
    Показать сообщения:    
    Ответить на тему

    Текущее время: Сегодня, в 22:23

    Часовой пояс: GMT + 2



    Вы не можете начинать темы
    Вы не можете отвечать на сообщения
    Вы не можете редактировать свои сообщения
    Вы не можете удалять свои сообщения
    Вы не можете голосовать в опросах
    Вы не можете прикреплять файлы к сообщениям
    Вы не можете скачивать файлы