BitTorrentTracker PerecTracker.org
BitTorrentTracker PerecTracker.org
    
Регистрация  ·  Вход
 
 · 
Забыли пароль?

  • Пёс / Сезон 1: Серии: 1-20 из 20 (Николай Каптан, Игорь Забара) [2015, Детектив, SATRip]

    Ответить на тему
     
    Автор Сообщение

    rechyn

    Создавать темы 23-Дек-2015 23:33

           

    [Цитировать]

    Пёс
    Год выпуска: 2015
    Производство: Телеканал ICTV и PRO-TV
    Жанр: Детектив
    Продолжительность: 00:49:00
    Субтитры: Нет
    Режиссёр: Николай Каптан, Игорь Забара
    В ролях: Андрей Саминин, Никита Панфилов, Михаил Жонин, Ольга Олексий, Денис Роднянский, Светлана Зельбет, Ольга Морозова, Тарас Мельничук
    Описание: Макс – алкоголик. Когда-то лучший сыщик в городе, Макс потерял все – работу, друзей, жену. У него остался единственный друг – Пес. После серии погонь, драк и перестрелок, Пес и Макс раскрыли тайну загадочного убийства.
    Макс с Псом снова стали детективами. Теперь каждый день начинается с того, что Пес и Макс пытаются выяснить, кто совершил преступление... И выяснить – кто из них лучший сыщик в городе!
    -
    Доп. информация: Реклама отсутствует!
    -
    Все раздачи сериала: http://perectracker.org/tracker.php?f=9&nm=%...1%82%D0%B0%D0%BD
    Сэмпл: https://cloud.mail.ru/public/4sHndofmioge/%D0%9F%D1...Rip.by.simka.avi
    Качество: SATRip
    Формат: AVI
    Видео кодек: XviD
    Аудио кодек: MP3
    Видео: 720x400, 25 fps, XviD, ~1440 kbps, 0.229 bit/pixel
    Аудио: 48 kHz, MPEG Layer 3, 2 ch, 192 kbps

    MI

    Общее
    Полное имя : U:\Сериалы (2015)\Пёс (2015)\Пёс.(01.seriya).2015.XviD.SATRip.by.simka.avi
    Формат : AVI
    Формат/Информация : Audio Video Interleave
    Размер файла : 599 Мбайт
    Продолжительность : 49 м.
    Общий поток : 1702 Кбит/сек
    Программа кодирования : VirtualDubModRus 1.5.10.2 (build 2542/release)
    Библиотека кодирования : VirtualDubMod build 2542/release
    Видео
    Идентификатор : 0
    Формат : MPEG-4 Visual
    Профиль формата : Advanced Simple@L5
    Параметр BVOP формата : 1
    Параметр QPel формата : Нет
    Параметр GMC формата : Без точки перехода
    Параметр матрицы формата : Default (MPEG)
    Идентификатор кодека : XVID
    Идентификатор кодека/Подсказка : XviD
    Продолжительность : 49 м.
    Битрейт : 1500 Кбит/сек
    Ширина : 720 пикселей
    Высота : 400 пикселей
    Соотношение сторон : 16:9
    Частота кадров : 25,000 кадров/сек
    Цветовое пространство : YUV
    Субдискретизация насыщенности : 4:2:0
    Битовая глубина : 8 бит
    Тип развёртки : Прогрессивная
    Метод сжатия : С потерями
    Бит/(Пиксели*Кадры) : 0.208
    Размер потока : 528 Мбайт (88%)
    Библиотека кодирования : XviD 1.2.1 (UTC 2008-12-04)
    Аудио
    Идентификатор : 1
    Формат : MPEG Audio
    Версия формата : Version 1
    Профиль формата : Layer 3
    Режим : Joint stereo
    Расширение режима : MS Stereo
    Идентификатор кодека : 55
    Идентификатор кодека/Подсказка : MP3
    Продолжительность : 49 м.
    Вид битрейта : Постоянный
    Битрейт : 192 Кбит/сек
    Каналы : 2 канала
    Частота : 48,0 КГц
    Метод сжатия : С потерями
    Размер потока : 67,6 Мбайт (11%)
    Выравнивание : Соединение по промежуткам
    Продолжительность промежутка : 40 мс. (1,00 видеокадр)
    Время предзагрузки промежутка : 504 мс.
    Библиотека кодирования : LAME3.99r
    Настройки программы : -m j -V 4 -q 2 -lowpass 18.6 -b 192

    Скриншоты

    Скачать .torrent

    Скачать торрент-файл бесплатно и на максимальной скорости!

    Как скачивать? · Что такое торрент? · Рейтинг и ограничения

    !ВНИМАНИЕ!
    Сайт не распространяет и не хранит электронные версии произведений, а занимается лишь лишь предоставлением доступа к создаваемому пользователями каталогу ссылок на торрент-файлы, которые содержат только списки хеш-сумм, убедительная просьба с жалобами обращаться напрямую к пользователю. Файлы для обмена на трекере предоставлены пользователями сайта, и администрация не несёт ответственности за их содержание. Просьба не заливать файлы, защищенные авторскими правами, а также файлы нелегального содержания!


    _________________
    [Профиль] [ЛС]
    Показать сообщения:    
    Ответить на тему

    Текущее время: Сегодня, в 14:41

    Часовой пояс: GMT + 2



    Вы не можете начинать темы
    Вы не можете отвечать на сообщения
    Вы не можете редактировать свои сообщения
    Вы не можете удалять свои сообщения
    Вы не можете голосовать в опросах
    Вы не можете прикреплять файлы к сообщениям
    Вы не можете скачивать файлы