BitTorrentTracker PerecTracker.org
BitTorrentTracker PerecTracker.org
    
Регистрация  ·  Вход
 
 · 
Забыли пароль?

  • Красота по-советски / Серии: 1-12 из 12 (Алена Семенова) [2015, Мелодрама, биография, WEBRip]

    Ответить на тему
     
    Автор Сообщение

    rechyn

    Создавать темы 23-Дек-2015 23:28

           

    [Цитировать]

    Красная королева (Красота по-советски)
    Год выпуска: 2015
    Производство: FILM.UA и Shpil и "Пронто фильм"
    Жанр: Мелодрама, биография
    Продолжительность: 00:55:00
    Субтитры: Нет
    Режиссёр: Алена Семенова
    В ролях: Ксения Лукьянчикова, Анатолий Руденко, Артем Ткаченко, Ада Роговцева, Елена Морозова, Татьяна Орлова, Валерий Баринов, Анна Здор, Наталья Высочанская, Анастасия Евграфова, Анна Сагайдачная и др.
    Описание: Сюжет фильма основан на фактах биографии известной советской манекенщицы Регины Збарской. Ее называли "советской Софи Лорен" и "самым красивым оружием Кремля". Ею восхищались Пьер Карден, Кристиан Диор и Федерико Феллини. Но кем была эта гордая красавица на самом деле? Почему она отказалась от своего имени? Как пришла к успеху? И какую цену за него заплатила? Жизнь одной из самых известных манекенщиц Советского Союза и первой советской модели, ставшей известной на Западе, полна тайн...
    "Наш фильм о красоте, о первых советских манекенщицах, которые покорили Париж, - рассказывает режиссер фильма Алена Семенова. – Прототипом главной героини стала манекенщица Регина Збарская, которую в ленте зовут Регина Барская. История во многом преувеличена, приукрашена, сделана более сказочной. Но имеет место много исторических фактов, в том числе, и приезд советской делегации в Париж".
    Роль Регины Збарской исполнила молодая актриса Ксения Лукьянчикова, для которой сериал "Красная королева" - дебют в кино. Создатели картины остановили свой выбор на Ксении благодаря ее поразительному внешнему сходству с известной манекенщицей.
    "Мы очень долго искали главную героиню в Украине, Сербии, Польше, Беларуси, России, - вспоминает режиссер. - Потом перешли на французов, пересмотрели всех вице мисс мира, моделей и балерин. Мы уже отчаялись. У нас было несколько претенденток, но ни одна из них полностью не устраивала. Пока не увидели Ксению…"
    Специально для роли Збарской Ксения Лукьянчикова похудела на 14 килограммов и обрезала длинные волосы. Но, как признается молодая актриса, ради столь яркой роли она была готова на любые эксперименты.
    Съемки картины проходили в Минске, Бресте, Москве, Санкт-Петербурге, Самарканде, а сцены парижского показа снимали во Львове. Для подиумных съемок художник по костюмам Гала Отенко и ее команда разработали и создали 24 коллекции одежды, а всего для фильма создано более тысячи нарядов.
    "Только у главной героини более 160 комплектов, у каждой из ее подруг – не менее 30, - рассказывает Гала Отенко. – Мы полностью реконструировали одежду французских манекенщиц, в которой они прогуливались по московскому рынку во время приезда Кристиана Диора в 1959 году. Для этих девушек мы сделали полную реконструкцию вплоть до головных уборов, обуви, ткани. Мы старались, чтобы у специалистов, которые разбираются в моде того периода, не возникло к нам никаких вопросов".
    В понедельник, 5 октября, в 21:00 на телеканале "Интер" стартует премьера 12-серийной мелодрамы "Красная королева" (производство - FILM.UA и Shpil). Сериал рассказывает о жизни знаменитой в 60-е годы манекенщицы Регины Збарской. В главных ролях - Ксения Лукьянчикова, Артем Ткаченко, Ада Роговцева, Анатолий Руденко, Валерий Баринов и другие известные актеры.
    -
    Доп. информация: Реклама отсутствует!
    Все раздачи сериала: http://perectracker.org/tracker.php?f=9&nm=Красная%20королева - http://perectracker.org/tracker.php?f=9&nm=К...та%20по-советски
    Сэмпл: https://cloud.mail.ru/public/49hXxhFVndmF/%D0%9A%D1...Rip.by.simka.avi
    Качество: WEBRip
    Формат: AVI
    Видео кодек: XviD
    Аудио кодек: MP3
    Видео: 720x400, 25 fps, XviD, ~1500 kbps, 0.229 bit/pixel
    Аудио: 44.1 kHz, MPEG Layer 3, 2 ch, 192 kbps

    MI

    Общее
    Полное имя : U:\Сериалы (2015)\Красная королева (2015) WEB-DLRip\Красная королева.(01.seriya).2015.XviD.WEB-DLRip.by.simka.avi
    Формат : AVI
    Формат/Информация : Audio Video Interleave
    Размер файла : 651 Мбайт
    Продолжительность : 51 м.
    Общий поток : 1775 Кбит/сек
    Программа кодирования : VirtualDubMod 1.5.10.3 | www.virtualdub-fr.org || (build 2550/release)
    Библиотека кодирования : VirtualDubMod build 2550/release
    Видео
    Идентификатор : 0
    Формат : MPEG-4 Visual
    Профиль формата : Advanced Simple@L5
    Параметр BVOP формата : 1
    Параметр QPel формата : Нет
    Параметр GMC формата : Без точки перехода
    Параметр матрицы формата : Default (MPEG)
    Идентификатор кодека : XVID
    Идентификатор кодека/Подсказка : XviD
    Продолжительность : 51 м.
    Битрейт : 1573 Кбит/сек
    Ширина : 720 пикселей
    Высота : 400 пикселей
    Соотношение сторон : 16:9
    Частота кадров : 25,000 кадров/сек
    Цветовое пространство : YUV
    Субдискретизация насыщенности : 4:2:0
    Битовая глубина : 8 бит
    Тип развёртки : Прогрессивная
    Метод сжатия : С потерями
    Бит/(Пиксели*Кадры) : 0.218
    Размер потока : 577 Мбайт (89%)
    Библиотека кодирования : XviD 1.2.1 (UTC 2008-12-04)
    Аудио
    Идентификатор : 1
    Формат : MPEG Audio
    Версия формата : Version 1
    Профиль формата : Layer 3
    Режим : Joint stereo
    Расширение режима : MS Stereo
    Идентификатор кодека : 55
    Идентификатор кодека/Подсказка : MP3
    Продолжительность : 51 м.
    Вид битрейта : Постоянный
    Битрейт : 192 Кбит/сек
    Каналы : 2 канала
    Частота : 44,1 КГц
    Метод сжатия : С потерями
    Размер потока : 70,4 Мбайт (11%)
    Выравнивание : Разделение по промежуткам
    Продолжительность промежутка : 40 мс. (1,00 видеокадр)
    Время предзагрузки промежутка : 500 мс.
    Библиотека кодирования : LAME3.99r
    Настройки программы : -m j -V 4 -q 2 -lowpass 18.6 -b 192

    Скриншоты

    Скачать .torrent

    Скачать торрент-файл бесплатно и на максимальной скорости!

    Как скачивать? · Что такое торрент? · Рейтинг и ограничения

    !ВНИМАНИЕ!
    Сайт не распространяет и не хранит электронные версии произведений, а занимается лишь лишь предоставлением доступа к создаваемому пользователями каталогу ссылок на торрент-файлы, которые содержат только списки хеш-сумм, убедительная просьба с жалобами обращаться напрямую к пользователю. Файлы для обмена на трекере предоставлены пользователями сайта, и администрация не несёт ответственности за их содержание. Просьба не заливать файлы, защищенные авторскими правами, а также файлы нелегального содержания!


    _________________
    [Профиль] [ЛС]
    Показать сообщения:    
    Ответить на тему

    Текущее время: Сегодня, в 02:40

    Часовой пояс: GMT + 2



    Вы не можете начинать темы
    Вы не можете отвечать на сообщения
    Вы не можете редактировать свои сообщения
    Вы не можете удалять свои сообщения
    Вы не можете голосовать в опросах
    Вы не можете прикреплять файлы к сообщениям
    Вы не можете скачивать файлы