BitTorrentTracker PerecTracker.org
BitTorrentTracker PerecTracker.org
    
Регистрация  ·  Вход
 
 · 
Забыли пароль?

  • Мир Наизнанку - 6-7: Латинская Америка и Боливия / Світ навиворіт - 6-7, Выпуск 1-21 из 21 () (Дмитрий Комаров) [2015, Реалити-Шоу, Документальный, Путешествие, SATRip]

    Ответить на тему
     
    Автор Сообщение

    rechyn

    Создавать темы 23-Дек-2015 23:17

           

    [Цитировать]

    -Мир Наизнанку - 6-7: Латинская Америка. Нетуристическая Мексика и Куба, Боливия
    -
    Год выпуска: 2015
    Страна: Украина
    Производство: 1+1 Production
    Жанр: Реалити-Шоу, Документальный, Путешествие
    Продолжительность: ~01:05:00
    Перевод: Не требуется (Русский)
    Автор и ведущий: Дмитрий Комаров
    Описание: Автор "Мира наизнанку" путешествует странами, в которых не принято ездить с туристическими турами. В программе вы увидите редкие традиции и уникальные ритуалы, невероятные знакомства с аборигенами. Дмитрий Комаров - украинский журналист и фотограф, специальный корреспондент газеты "Известия в Украине".
    Автор и участник масштабных экспедиций предпочитает путешествиям одиночестве - покупает билет в один конец и надолго едет в незнакомую страну, чтобы понять ее изнутри, стать ее жителем, показать ее изнанку.
    В багаже Комарова сегодня около 20 стран: Кения, Танзания, Непал, Бирма, Таиланд, Азербайджан, Казахстан, Республика Кабардино-Балкария и другие. Путешествие Комарова по Индии была внесена в "Книгу рекордов Украины" как максимальный пробег "своим ходом" по этой стране за минимальный срок - 20 000 километров за 90 дней. Дмитрий так же сходил на Килиманджаро, Эльбрус и Монблан.
    Все раздачи: http://perectracker.org/search.php?nm=%D0%9C%D0%...0%BD%D0%BA%D1%83
    -
    Качество: SATRip
    Формат: AVI
    Видео кодек: XviD
    Аудио кодек: MP3
    Видео: XviD, 720x400, 25.00fps, ~1750 Кбит/сек, 0.253
    Аудио: MP3, 48000 Hz, stereo, 192 Кбит/сек

    MI

    Общее
    Полное имя : D:\Мир наизнанку-6. Латинская Америка и Мексика, Куба\Mir.Naiznanku.-.6.Latinskaja Amerika.(01.Vipusk).(2015.03.29).2015.XviD.SATRip.by.simka.avi
    Формат : AVI
    Формат/Информация : Audio Video Interleave
    Размер файла : 900 Мбайт
    Продолжительность : 1 ч. 2 м.
    Общий поток : 2024 Кбит/сек
    Программа кодирования : VirtualDubMod 1.5.10.3 | www.virtualdub-fr.org || (build 2550/release)
    Библиотека кодирования : VirtualDubMod build 2550/release
    Видео
    Идентификатор : 0
    Формат : MPEG-4 Visual
    Профиль формата : Advanced Simple@L5
    Параметр BVOP формата : 2
    Параметр QPel формата : Нет
    Параметр GMC формата : Без точки перехода
    Параметр матрицы формата : Default (MPEG)
    Идентификатор кодека : XVID
    Идентификатор кодека/Подсказка : XviD
    Продолжительность : 1 ч. 2 м.
    Битрейт : 1822 Кбит/сек
    Ширина : 720 пикселей
    Высота : 400 пикселей
    Соотношение сторон : 16:9
    Частота кадров : 25,000 кадров/сек
    Цветовое пространство : YUV
    Субдискретизация насыщенности : 4:2:0
    Битовая глубина : 8 бит
    Тип развёртки : Прогрессивная
    Метод сжатия : С потерями
    Бит/(Пиксели*Кадры) : 0.253
    Размер потока : 811 Мбайт (90%)
    Библиотека кодирования : XviD 1.2.1 (UTC 2008-12-04)
    Аудио
    Идентификатор : 1
    Формат : MPEG Audio
    Версия формата : Version 1
    Профиль формата : Layer 3
    Режим : Joint stereo
    Идентификатор кодека : 55
    Идентификатор кодека/Подсказка : MP3
    Продолжительность : 1 ч. 2 м.
    Вид битрейта : Постоянный
    Битрейт : 192 Кбит/сек
    Каналы : 2 канала
    Частота : 48,0 КГц
    Метод сжатия : С потерями
    Размер потока : 85,4 Мбайт (9%)
    Выравнивание : Соединение по промежуткам
    Продолжительность промежутка : 40 мс. (1,00 видеокадр)
    Время предзагрузки промежутка : 504 мс.
    Библиотека кодирования : LAME3.99r
    Настройки программы : -m j -V 4 -q 2 -lowpass 18.6 -b 192
    Скриншоты

    Видеоинтервью с ведущим программы «Мир наизнаку»

    1 выпуск от 29.03.2015 - Нетуристическая Мексика и Куба

    2 выпуск от 05.04.2015 - Женщина-вамипир. Племя лакандонов

    3 выпуск от 12.04.2015 - Латинская Америка. Цоциль. Город Текила


    4 выпуск от 19.04.2015 - Жизнь и смерть в мексиканской столице

    5 выпуск от 03.05.2015 - Знакомство с Мексикой

    6 выпуск от 10.05.2015 - Знакомство с Мексикой

    7 выпуск от 24.05.2015 - Спецоперация "Куба" - Нетуристическая Куба

    8 выпуск от 31.05.2015 - Путешествие по Кубе

    9 выпуск от 07.06.2015 - Латинская Америка. Гавана.

    10 выпуск от 14.06.2015 - Латинская Америка. Меннониты. Гвадалахара.

    11 выпуск от 21.06.2015 - Путешествие по Мексике

    12 выпуск от 28.06.2015 - Большая мексиканско-кубинская экспедиция

    7 сезон - Боливия

    13 выпуск от 01.09.2015 - Боливия

    14 выпуск от 08.09.2015 - Рискованное путешествие в мировую столицу серебра, город Потоси. Боливия

    15 выпуск от 15.09.2015 - Таинственная жизнь самой высокой столицы мира

    16 выпуск от 22.09.2015 - Солончак Уюни

    17 выпуск от 29.09.2015 - Бесконечные плантации коки. Шашлык из морской свинки

    18 выпуск от 06.10.2015 - Староверы. Женские бои, динозавры и ярмарка чудес

    19 выпуск от 20.10.2015 -

    20 выпуск от 27.10.2015 - Спец. выпуск

    21 выпуск от 03.11.2015 - Финал сезона 2015

    Финал сезона 2015

    скрытый текст

    22 выпуск от 10.11.2015 -

    23??? выпуск от 17.11.2015 -

    ----

    Внимание! Раздача ведётся путём добавления новых выпусков

    При каждом добавлении создаётся новый торрент. Чтобы начать докачку нового выпуска, пользователям необходимо сделать следующее:
    ● остановить скачивание;
    ● удалить старый торрент у себя из клиента (старые выпуски удалять не надо);
    ● скачать новый торрент и запустить его у себя в клиенте вместо старого, при этом указать клиенту путь в старую папку куда и должно происходить скачивание новых выпусков;
    ● ваш клиент при запуске должен произвести хеширование (проверку) старой папки (если не производит сам - помогите ему сделать это), и будет докачивать только те выпуски, которых у вас ещё нет. Старые выпуски при этом не удаляются, а продолжают раздаваться!
    ● Eсли вы уже удалили старые выпуски, то предотвратить повторную закачку старых выпусков можно, отжав галочку в соответсвующих местах при запуске нового торрента.
    Добавлен 21-й выпуск!-
    Скачать .torrent

    Скачать торрент-файл бесплатно и на максимальной скорости!

    Как скачивать? · Что такое торрент? · Рейтинг и ограничения

    !ВНИМАНИЕ!
    Сайт не распространяет и не хранит электронные версии произведений, а занимается лишь лишь предоставлением доступа к создаваемому пользователями каталогу ссылок на торрент-файлы, которые содержат только списки хеш-сумм, убедительная просьба с жалобами обращаться напрямую к пользователю. Файлы для обмена на трекере предоставлены пользователями сайта, и администрация не несёт ответственности за их содержание. Просьба не заливать файлы, защищенные авторскими правами, а также файлы нелегального содержания!


    _________________
    [Профиль] [ЛС]
    Показать сообщения:    
    Ответить на тему

    Текущее время: Сегодня, в 04:26

    Часовой пояс: GMT + 2



    Вы не можете начинать темы
    Вы не можете отвечать на сообщения
    Вы не можете редактировать свои сообщения
    Вы не можете удалять свои сообщения
    Вы не можете голосовать в опросах
    Вы не можете прикреплять файлы к сообщениям
    Вы не можете скачивать файлы