BitTorrentTracker PerecTracker.org
BitTorrentTracker PerecTracker.org
    
Регистрация  ·  Вход
 
 · 
Забыли пароль?

  • Никонов и Ко / Сезон: 1 / Серии: 1-16 из 16 (Заза Буадзе, Тарас Ткаченко) [2015, Криминал, детектив, WEBRip]

    Ответить на тему
     
    Автор Сообщение

    rechyn

    Создавать темы 23-Дек-2015 23:02

           

    [Цитировать]

    Никонов и КоГод выпуска: 2015
    Производство: FILM.UA Group и Mamas Production.
    Жанр: Криминал, детектив
    Продолжительность: 00:46:00
    Субтитры: Нет
    Режиссёр: Заза Буадзе, Тарас Ткаченко
    В ролях: Александр Кобзарь, Михаил Кукуюк, Марина Коняшкина, Роберт Фельдман, Олег Примогенов, Антонина Макарчук и др.
    Описание: В результате перестрелки 38-летний оперативный работник следственного отдела МВД Сергий Никонов (Александр Кобзарь) получает тяжелейшую травму позвоночника. У Сергея парализованы ноги, он может передвигаться лишь в инвалидном кресле. Чтобы отвлечься от своей личной трагедии и справиться с депрессией, Сергей организовывает у себя в квартире неофициальный отдел по расследованию криминальных преступлений.
    Описание 2: Когда милиция бессильна, он выходит на след… не вставая с инвалидного кресла. Герой психологического детективного сериала «Никонов и Ко» – гениальный следователь с ограниченными возможностями и скверным характером, но уникальными аналитическими способностями и превосходной логикой. Получив во время задания травму позвоночника, Сергей Никонов не сдается. И, не выходя из квартиры, расследует дела, на которых начальство поставило крест.
    Когда милицейские профи бессильны, именно он выходит на след преступника… не вставая с инвалидного кресла. Герой психологического детективного сериала «Никонов и Ко» – гениальный сыщик с ограниченными возможностями и очень скверным характером, однако с превосходными аналитическими способностями и безукоризненной логикой. В результате перестрелки 38-летний оперативный работник следственного отдела МВД Сергей Никонов (Александр Кобзарь) получает тяжелейшую травму позвоночника. У Сергея парализованы ноги, он может передвигаться лишь в инвалидном кресле. Чтобы отвлечься от своей личной трагедии и справиться с депрессией, Сергей организовывает у себя в квартире неофициальный отдел по расследованию сложнейшие дел, криминальных преступлений, на которых милицейское начальство уже поставило крест....
    -
    Доп. информация: Реклама отсутствует!-Все раздачи сериала: http://perectracker.org/tracker.php?f=9&nm=Никонов%20и%20Ко
    Сэмпл: https://cloud.mail.ru/public/3fYfQuZj38VT/%D0%9D%D0...Rip.by.simka.avi
    Качество: WEBRip
    Формат: AVI
    Видео кодек: XviD
    Аудио кодек: MP3
    Видео: 720x400, 25 fps, XviD, ~1500 kbps, 0.229 bit/pixel
    Аудио: 48 kHz, MPEG Layer 3, 2 ch, 192 kbps

    MI

    Общее
    Полное имя : C:\Users\simka\Documents\MEGA\Никонов и Ко\Никонов и Ко.(03.seriya).2015.XviD.WEB-DLRip.by.simka.avi
    Формат : AVI
    Формат/Информация : Audio Video Interleave
    Размер файла : 551 Мбайт
    Продолжительность : 43 м.
    Общий поток : 1783 Кбит/сек
    Программа кодирования : VirtualDubMod 1.5.10.3 | www.virtualdub-fr.org || (build 2550/release)
    Библиотека кодирования : VirtualDubMod build 2550/release
    Видео
    Идентификатор : 0
    Формат : MPEG-4 Visual
    Профиль формата : Advanced Simple@L5
    Параметр BVOP формата : 1
    Параметр QPel формата : Нет
    Параметр GMC формата : Без точки перехода
    Параметр матрицы формата : Default (MPEG)
    Идентификатор кодека : XVID
    Идентификатор кодека/Подсказка : XviD
    Продолжительность : 43 м.
    Битрейт : 1581 Кбит/сек
    Ширина : 720 пикселей
    Высота : 400 пикселей
    Соотношение сторон : 16:9
    Частота кадров : 25,000 кадров/сек
    Цветовое пространство : YUV
    Субдискретизация насыщенности : 4:2:0
    Битовая глубина : 8 бит
    Тип развёртки : Прогрессивная
    Метод сжатия : С потерями
    Бит/(Пиксели*Кадры) : 0.220
    Размер потока : 488 Мбайт (89%)
    Библиотека кодирования : XviD 1.2.1 (UTC 2008-12-04)
    Аудио
    Идентификатор : 1
    Формат : MPEG Audio
    Версия формата : Version 1
    Профиль формата : Layer 3
    Идентификатор кодека : 55
    Идентификатор кодека/Подсказка : MP3
    Продолжительность : 43 м.
    Вид битрейта : Постоянный
    Битрейт : 192 Кбит/сек
    Каналы : 2 канала
    Частота : 48,0 КГц
    Метод сжатия : С потерями
    Размер потока : 59,3 Мбайт (11%)
    Выравнивание : Соединение по промежуткам
    Продолжительность промежутка : 40 мс. (1,00 видеокадр)
    Время предзагрузки промежутка : 504 мс.
    Библиотека кодирования : LAME3.99r
    Настройки программы : -m s -V 4 -q 2 -lowpass 18.6 -b 192

    Скриншоты

    Сравнения

    http://perectracker.org/viewtopic.php?t=5110743
    без ТВ Реклам и спонсоров!, по качеству картинки отличия не заметно или немного
    Скачать .torrent

    Скачать торрент-файл бесплатно и на максимальной скорости!

    Как скачивать? · Что такое торрент? · Рейтинг и ограничения

    !ВНИМАНИЕ!
    Сайт не распространяет и не хранит электронные версии произведений, а занимается лишь лишь предоставлением доступа к создаваемому пользователями каталогу ссылок на торрент-файлы, которые содержат только списки хеш-сумм, убедительная просьба с жалобами обращаться напрямую к пользователю. Файлы для обмена на трекере предоставлены пользователями сайта, и администрация не несёт ответственности за их содержание. Просьба не заливать файлы, защищенные авторскими правами, а также файлы нелегального содержания!


    _________________
    [Профиль] [ЛС]
    Показать сообщения:    
    Ответить на тему

    Текущее время: Сегодня, в 12:45

    Часовой пояс: GMT + 2



    Вы не можете начинать темы
    Вы не можете отвечать на сообщения
    Вы не можете редактировать свои сообщения
    Вы не можете удалять свои сообщения
    Вы не можете голосовать в опросах
    Вы не можете прикреплять файлы к сообщениям
    Вы не можете скачивать файлы