BitTorrentTracker PerecTracker.org
BitTorrentTracker PerecTracker.org
    
Регистрация  ·  Вход
 
 · 
Забыли пароль?

  • Обмани, если любишь (Год обмана) / Серии: 1-8 из 8 (Дмитрий Тюрин) [2014, мелодрама, WEBRip]

    Ответить на тему
     
    Автор Сообщение

    rechyn

    Создавать темы 23-Дек-2015 22:56

           

    [Цитировать]

    Обмани, если любишь (Год обмана)
    Год выпуска: 2014
    Производство: Всемирные Русские Студии
    Жанр: мелодрама
    Продолжительность: ~ 00:50:00
    Субтитры: Нет
    Режиссёр: Дмитрий Тюрин
    В ролях: Сергей Чирков, Юлия Хлынина, Никита Смольянинов, Игорь Миркурбанов, Юлия Рутберг, Марина Зудина, Александр Орав, Алика Смехова, Виталия Корниенко, Татьяна Демидова, Наталья Бардо, Марина Митрофанова
    Описание: «Лоховедение», «Бух-учет» и «Мат-анализ» преподает обаятельный раздолбай Михаил инфантильному сыну своего шефа Сергею на уроках жизни. Михаил снова влип в историю - устроил в офисе вечеринку, которая закончилась пожаром. Последует увольнение? Совсем нет. Михаила ждет неплохая зарплата, персональный автомобиль, свободный график. А работа, которую требуется выполнить – обучить всем жизненным удовольствиям Сергея, кандидата в чемпионы-«ботаны». Михаил с энтузиазмом принимается за дело. «Госэкзаменом» должна стать будущая актриса Марина. Сергею нужно влюбить ее в себя. Но все идет не по учебному плану. Михаил сам влюбляется в Марину, а Сергей из стеснительного буки превращается в жесткого манипулятора с деньгами и властью. Михаил не в силах справится с Сергеем – ведь этого монстра он воспитал сам…-Доп. информация: Реклама отсутствует!-Релиз группы:: -Все раздачи сериала: http://perectracker.org/tracker.php?f=9&nm=О...%20если%20любишь
    Сэмпл: https://cloud.mail.ru/public/5Qp4ce8KbgMH/%D0%9E%D0...Rip.by.simka.avi
    Качество: WEBRip
    Формат: AVI
    Видео кодек: XviD
    Аудио кодек: MP3
    Видео: 720x400, 25 fps, XviD, ~1600 kbps, 0.211 bit/pixel
    Аудио: 48 kHz, MPEG Layer 3, 2 ch, 192 kbps

    MI

    Общее
    Полное имя : I:\001\Обмани, если любишь (2014) WEB-DLRip\Обмани, если любишь.(02.seriya).2014.XviD.WEB-DLRip.by.simka.avi
    Формат : AVI
    Формат/Информация : Audio Video Interleave
    Размер файла : 651 Мбайт
    Продолжительность : 49 м.
    Общий поток : 1836 Кбит/сек
    Программа кодирования : VirtualDubMod 1.5.10.3 | www.virtualdub-fr.org || (build 2550/release)
    Библиотека кодирования : VirtualDubMod build 2550/release
    Видео
    Идентификатор : 0
    Формат : MPEG-4 Visual
    Профиль формата : Advanced Simple@L5
    Параметр BVOP формата : 1
    Параметр QPel формата : Нет
    Параметр GMC формата : Без точки перехода
    Параметр матрицы формата : Default (MPEG)
    Идентификатор кодека : XVID
    Идентификатор кодека/Подсказка : XviD
    Продолжительность : 49 м.
    Битрейт : 1634 Кбит/сек
    Ширина : 720 пикселей
    Высота : 400 пикселей
    Соотношение сторон : 16:9
    Частота кадров : 25,000 кадров/сек
    Цветовое пространство : YUV
    Субдискретизация насыщенности : 4:2:0
    Битовая глубина : 8 бит
    Тип развёртки : Прогрессивная
    Метод сжатия : С потерями
    Бит/(Пиксели*Кадры) : 0.227
    Размер потока : 579 Мбайт (89%)
    Библиотека кодирования : XviD 1.2.1 (UTC 2008-12-04)
    Аудио
    Идентификатор : 1
    Формат : MPEG Audio
    Версия формата : Version 1
    Профиль формата : Layer 3
    Режим : Joint stereo
    Расширение режима : MS Stereo
    Идентификатор кодека : 55
    Идентификатор кодека/Подсказка : MP3
    Продолжительность : 49 м.
    Вид битрейта : Постоянный
    Битрейт : 192 Кбит/сек
    Каналы : 2 канала
    Частота : 48,0 КГц
    Метод сжатия : С потерями
    Размер потока : 68,1 Мбайт (10%)
    Выравнивание : Соединение по промежуткам
    Продолжительность промежутка : 40 мс. (1,00 видеокадр)
    Время предзагрузки промежутка : 504 мс.
    Библиотека кодирования : LAME3.99r
    Настройки программы : -m j -V 4 -q 2 -lowpass 18.6 -b 192

    Скриншоты

    Скачать .torrent

    Скачать торрент-файл бесплатно и на максимальной скорости!

    Как скачивать? · Что такое торрент? · Рейтинг и ограничения

    !ВНИМАНИЕ!
    Сайт не распространяет и не хранит электронные версии произведений, а занимается лишь лишь предоставлением доступа к создаваемому пользователями каталогу ссылок на торрент-файлы, которые содержат только списки хеш-сумм, убедительная просьба с жалобами обращаться напрямую к пользователю. Файлы для обмена на трекере предоставлены пользователями сайта, и администрация не несёт ответственности за их содержание. Просьба не заливать файлы, защищенные авторскими правами, а также файлы нелегального содержания!


    _________________
    [Профиль] [ЛС]
    Показать сообщения:    
    Ответить на тему

    Текущее время: Сегодня, в 18:01

    Часовой пояс: GMT + 2



    Вы не можете начинать темы
    Вы не можете отвечать на сообщения
    Вы не можете редактировать свои сообщения
    Вы не можете удалять свои сообщения
    Вы не можете голосовать в опросах
    Вы не можете прикреплять файлы к сообщениям
    Вы не можете скачивать файлы