BitTorrentTracker PerecTracker.org
BitTorrentTracker PerecTracker.org
    
Регистрация  ·  Вход
 
 · 
Забыли пароль?

  • Все равно ты будешь мой / Серии: 1-4 из 4 (Александр Тименко) [2015, Мелодрама, DVB]

    Ответить на тему
     
    Автор Сообщение

    rechyn

    Создавать темы 23-Дек-2015 20:33

           

    [Цитировать]

    Все равно ты будешь мой / Все одно ти будешь мійГод выпуска: 2015
    Производство: 1+1 Production
    Жанр: Мелодрама
    Продолжительность: 00:49:00
    Субтитры: Нет
    Режиссёр: Александр Тименко
    В ролях: Валерия Ходос, Александр Попов, Даниил Мирешкин, Виталий Овчаров, Владимир Миненко, Елена Стефанская, Станислав Боклан, Алла Мартынюк
    Описание: История любви обаятельной провинциалки Алены к богатому аристократу Никите, для которого отношения с Аленой - это просто спор с друзьями. Алена пройдет через много испытаний и унижения, но все-таки найдет в себе силы доказать себе и всем, что она достойна Ника, а поможет ей обрести уверенность в себе ее верный и безнадежно в нее влюбленный друг Миша...
    Представитель "золотой молодежи" Никита заключил пари с друзьями, что соблазнит "серую мышку" отличницу Алену. Девушка влюбляется в парня, не замечая искренних чувств другого студента. Когда Никита грубо бросает ее, Алена решает работать над собой, чтобы вернуть любимого.
    -
    Доп. информация: Реклама отсутствует!
    -
    Релиз группы::
    -
    Все раздачи сериала: http://perectracker.org/tracker.php?f=9&nm=В...но%ты%будешь%мой
    Сэмпл: https://cloud.mail.ru/public/3g9NeHJN9ehr/%D0%92%D1...96%D0%B9%2004.ts
    Качество: DVB
    Формат: MPEG
    Видео кодек: MPEG2
    Аудио кодек: MPEG1
    Видео: MPEG2 Video 720x576 (768x576) (4:3) 25.00fps ~5500Kbps (0.552 bit/pixel)
    Аудио: MPEG Audio 48000Hz 2 channels 192 Кбит/сек

    MI

    Общее
    Идентификатор : 16 (0x10)
    Полное имя : W:\Video7\Все одно ти будешь мій (2015) DVB\Все одно ти будешь мій 04.ts
    Формат : MPEG-TS
    Размер файла : 2,05 Гбайт
    Продолжительность : 49 м.
    Режим общего битрейта : Переменный
    Общий поток : 5903 Кбит/сек
    Видео
    Идентификатор : 769 (0x301)
    Идентификатор меню : 3 (0x3)
    Формат : MPEG Video
    Версия формата : Version 2
    Профиль формата : Main@Main
    Параметр BVOP формата : Да
    Параметр матрицы формата : Выборочная
    Параметр GOP формата : Variable
    Format_Settings_PictureStructure : Frame
    Идентификатор кодека : 2
    Продолжительность : 49 м.
    Вид битрейта : Переменный
    Битрейт : 5417 Кбит/сек
    Максимальный битрейт : 15,0 Мбит/сек
    Ширина : 720 пикселей
    Высота : 576 пикселей
    Соотношение сторон : 4:3
    Частота кадров : 25,000 кадров/сек
    Стандарт вещания : PAL
    Цветовое пространство : YUV
    Субдискретизация насыщенности : 4:2:0
    Битовая глубина : 8 бит
    Тип развёртки : Чересстрочная
    Порядок развёртки : Верхнее поле первое
    Метод сжатия : С потерями
    Бит/(Пиксели*Кадры) : 0.522
    Временной код первого кадра : 00:00:00:00
    Оригинал временного кода : Group of pictures header
    Размер потока : 1,88 Гбайт (92%)
    Библиотека кодирования : (dvd5: Nov 27 2014)
    Аудио
    Идентификатор : 770 (0x302)
    Идентификатор меню : 3 (0x3)
    Формат : MPEG Audio
    Версия формата : Version 1
    Профиль формата : Layer 2
    Идентификатор кодека : 3
    Продолжительность : 49 м.
    Вид битрейта : Постоянный
    Битрейт : 192 Кбит/сек
    Каналы : 2 канала
    Частота : 48,0 КГц
    Метод сжатия : С потерями
    Размер потока : 68,2 Мбайт (3%)

    Скриншоты

    -------------
    Скачать .torrent

    Скачать торрент-файл бесплатно и на максимальной скорости!

    Как скачивать? · Что такое торрент? · Рейтинг и ограничения

    !ВНИМАНИЕ!
    Сайт не распространяет и не хранит электронные версии произведений, а занимается лишь лишь предоставлением доступа к создаваемому пользователями каталогу ссылок на торрент-файлы, которые содержат только списки хеш-сумм, убедительная просьба с жалобами обращаться напрямую к пользователю. Файлы для обмена на трекере предоставлены пользователями сайта, и администрация не несёт ответственности за их содержание. Просьба не заливать файлы, защищенные авторскими правами, а также файлы нелегального содержания!


    _________________
    [Профиль] [ЛС]
    Показать сообщения:    
    Ответить на тему

    Текущее время: Сегодня, в 19:59

    Часовой пояс: GMT + 2



    Вы не можете начинать темы
    Вы не можете отвечать на сообщения
    Вы не можете редактировать свои сообщения
    Вы не можете удалять свои сообщения
    Вы не можете голосовать в опросах
    Вы не можете прикреплять файлы к сообщениям
    Вы не можете скачивать файлы